COVID-19 - Последняя информация о коронавирусе на сайте Минздрава




Торрент файл
скачать торрент магнет ссылка Добавлен: 19 май 2018, 21:11
Размер: 2.99 ГБ
Сидеров: 2
Личеров: 3
Статус: (salma3)
Автор

СообщениеДобавлено: 19 май 2018, 21:11 

Не в сети
Супермодератор
Аватара пользователя
Дата регистрации:
15 фев 2012, 16:44
Возраст: 30
Спасибо: 8217 / 2148
Сообщения: 95904
Год выхода: 2014
Жанр: комедия, приключения
Режиссер: Тим Хилл

В ролях: Сердитая кошка, Меган Чарпентье, Дэниэл Робак, Расселл Питерс, Дэвид Льюис, Ивэн Тодд, Исаак Хэйг, Шона Йоханнесен, Кэйси Мандерсон, Тайлер Джонстон

О фильме:
Одинокая кошка Грампи живёт в зоомагазине большого торгового центра. Никто из посетителей зоомагазина не хочет забирать пушистого питомца к себе домой, и из-за этого Грампи стала весьма угрюмо смотреть на окружающий мир. Однажды накануне Рождества в магазин заходит 12-летняя девочка по имени Кристал и обнаруживает, что она может слышать то, о чём говорит Грампи. Вместе Кристал и Грампи предстоит пройти через множество захватывающих приключений. Среди них погони, стрельба, похищение экзотических собак и многое другое. Поймёт ли после этого Грампи истинный смысл Рождества, или же, по её словам, это будет "самое худшее Рождество"?..



Производство: США / Lifetime, Lighthouse Pictures
Продолжительность: 01:23:56
Перевод: профессиональный (многоголосый закадровый)

Файл
Качество: HDTV 1080i
Формат: MKV
Видео: MPEG-4 AVC, 1920x1080 (16:9), 25.000 fps, 4802 kbps, 0.093 bit/pixel
Аудио: русский, AC3 2.0, 48 kHz, 192 kbps



Общее
Уникальный идентификатор : 214625490656779590171768280968545765128 (0xA1775DAD7CF90F35B839D3D439690708)
Полное имя : Grumpy.Cat's.Worst.Christmas.Ever.2014.HDTVRip.1080p.mkv
Формат : Matroska
Версия формата : Version 4 / Version 2
Размер файла : 2,99 Гбайт
Продолжительность : 1 ч. 23 м.
Общий поток : 5095 Кбит/сек
Дата кодирования : UTC 2018-05-18 13:23:57
Программа кодирования : mkvmerge v7.9.0 ('Birds') 64bit
Библиотека кодирования : libebml v1.3.1 + libmatroska v1.4.2
Видео
Идентификатор : 1
Формат : AVC
Формат/Информация : Advanced Video Codec
Профиль формата : High@L4.1
Параметр CABAC формата : Да
Параметр ReFrames формата : 4 кадра
Идентификатор кодека : V_MPEG4/ISO/AVC
Продолжительность : 1 ч. 23 м.
Битрейт : 4802 Кбит/сек
Ширина : 1920 пикселей
Высота : 1080 пикселей
Соотношение сторон : 16:9
Режим частоты кадров : Постоянный
Частота кадров : 25,000 кадров/сек
Цветовое пространство : YUV
Субдискретизация насыщенности : 4:2:0
Битовая глубина : 8 бит
Тип развёртки : Чересстрочная
Порядок развёртки : Верхнее поле первое
Бит/(Пиксели*Кадры) : 0.093
Размер потока : 2,82 Гбайт (94%)
Default : Да
Forced : Нет
Цветовой диапазон : Limited
Основные цвета : BT.709
Характеристики трансфера : BT.709
Коэффициенты матрицы : BT.709
Аудио
Идентификатор : 2
Формат : AC-3
Формат/Информация : Audio Coding 3
Расширение режима : CM (complete main)
Параметр Endianness формата : Big
Идентификатор кодека : A_AC3
Продолжительность : 1 ч. 23 м.
Вид битрейта : Постоянный
Битрейт : 192 Кбит/сек
Каналы : 2 канала
Расположение каналов : Front: L R
Частота : 48,0 КГц
Метод сжатия : С потерями
Размер потока : 115 Мбайт (4%)
Язык : Russian
Default : Да
Forced : Нет


_________________
Проголосуй за трекер Открытый торрент трекер - RUS-MEDIA.ORG

Проголосуй Открытый торрент трекер - RUS-MEDIA.ORG


Скачать книги и аудио книги через торрент


Вернуться к началу
 Профиль Отправить личное сообщение  
 
   Похожие торренты   Автор   Торрент   Размер 
В этой теме нет новых непрочитанных сообщений. Animal Planet: Большие кошки Кении / Big Cat Tales [01-04 из 05] (2018) HDTV 1080i | P1

salma3

0 | 0

14.27 ГБ

В этой теме нет новых непрочитанных сообщений. Рождество / This Christmas [драма, мелодрама, комедия, 2007] HDRip, Mvo

salma3

14 | 0

1.45 ГБ

В этой теме нет новых непрочитанных сообщений. Рождество в Эль-Камино / El Camino Christmas [комедия, 2017] WEBRip, Mvo

salma3

0 | 0

1.37 ГБ

В этой теме нет новых непрочитанных сообщений. Рождество в Эль-Камино / El Camino Christmas [комедия, 2017] WEBDLRip, Mvo

salma3

180 | 30

1.37 ГБ

В этой теме нет новых непрочитанных сообщений. Рождество в Эль-Камино / El Camino Christmas [комедия, 2017] WEBRip 720p, Mvo

salma3

0 | 0

2.71 ГБ

В этой теме нет новых непрочитанных сообщений. Бесконечное рождество / Christmas Do-Over [фэнтези, комедия, семейный, 2006] WEB-DLRip, Mvo

salma3

3 | 0

1.46 ГБ

В этой теме нет новых непрочитанных сообщений. Рождество каждый день / Christmas Every Day [фэнтези, комедия, 1996] TVRip-AVC, Mvo

salma3

0 | 0

1.13 ГБ


Начать новую тему Ответить на тему  [ 1 сообщение ] 




Для Мосгорсуда, Роскомнадзора и рекламодателей:: rstracker[собака]yandex.ru
cron