Торрент файл
скачать торрент магнет ссылка Добавлен: 19 май 2018, 20:43
Размер: 20.37 ГБ
Сидеров: 0
Личеров: 0
Статус: (salma3)
Автор

СообщениеДобавлено: 19 май 2018, 20:43 

В сети
Супермодератор
Аватара пользователя
Дата регистрации:
15 фев 2012, 16:44
Возраст: 28
Спасибо: 7203 / 2147
Сообщения: 65000
Год выхода: 2008
Жанр: Фантастика, боевик, приключения
Режиссер: Джон Фавро

В ролях: Роберт Дауни мл., Джефф Бриджес, Гвинет Пэлтроу, Терренс Ховард, Джон Фавро, Лесли Бибб, Шон Тоуб, Фаран Таир, Кларк Грегг, Билл Смитрович, Саид Бадрия, Пол Беттани

О фильме: Миллиардер изобретатель Тони Старк попадает в плен к Афганским террористам, которые пытаются заставить его создать оружие массового поражения. В тайне от своих захватчиков Старк конструирует высокотехнологичную киберброню, которая помогает ему сбежать. Однако по возвращению в США он узнаёт, что в совете директоров его фирмы плетётся заговор, чреватый страшными последствиями. Используя своё последнее изобретение, Старк пытается решить проблемы своей компании радикально...



Выпущено: США
Продолжительность: 02:06:10
Перевод: дублированный, закадровый многоголосый, закадровый одноголосый

Контейнер: .MKV
Видео: x264, 1920x1080 (16:9), 18.2 Mb/s, 23.976 fps
Звук:
#1: Russian AC3, 5.1, 640 kbps (Dub)
#2: Russian AC3, 5.1, 640 kbps (MVO Кравец)
#3: Russian DTS, 5.1, 1509 kbps (VO Гаврилов)
#4: Russian DTS, 5.1, 1509 kbps (VO Королев)
#5: English AC3, 5.1, 640 kbps (TrueHD core)
Субтитры: russian (forced, full-length), english
Релиз от:





OAR BluRay наложен поверх open matte WEB-DL с помощью AutoOverlay AviSynth plugin.
За предоставленный WEB-DL спасибо maksnew.
Хронометраж соответствует BD.
General
Complete name : Iron.Man.2008.Open.Matte.1080p-BLUEBIRD.mkv
Format : Matroska
Format version : Version 4 / Version 2
File size : 20.4 GiB
Duration : 2 h 6 min
Overall bit rate : 23.1 Mb/s
Movie name : Iron Man (2008)
Encoded date : UTC 2018-05-11 05:04:54
Writing application : mkvmerge v22.0.0 ('At The End Of The World') 64-bit
Writing library : libebml v1.3.5 + libmatroska v1.4.8
Cover : Yes
Attachments : cover
Video
ID : 1
Format : AVC
Format/Info : Advanced Video Codec
Format profile : High@L4.1
Format settings : CABAC / 4 Ref Frames
Format settings, CABAC : Yes
Format settings, ReFrames : 4 frames
Codec ID : V_MPEG4/ISO/AVC
Duration : 2 h 6 min
Bit rate : 18.2 Mb/s
Width : 1 920 pixels
Height : 1 080 pixels
Display aspect ratio : 16:9
Frame rate mode : Constant
Frame rate : 23.976 (24000/1001) FPS
Color space : YUV
Chroma subsampling : 4:2:0
Bit depth : 8 bits
Scan type : Progressive
Bits/(Pixel*Frame) : 0.366
Stream size : 16.0 GiB (79%)
Writing library : x264 core 155 r2901 7d0ff22
Encoding settings : cabac=1 / ref=4 / deblock=1:-3:-3 / analyse=0x3:0x133 / me=umh / subme=11 / psy=1 / psy_rd=1.15:0.05 / mixed_ref=1 / me_range=32 / chroma_me=1 / trellis=2 / 8x8dct=1 / cqm=0 / deadzone=21,11 / fast_pskip=1 / chroma_qp_offset=-3 / threads=12 / lookahead_threads=1 / sliced_threads=0 / nr=0 / decimate=1 / interlaced=0 / bluray_compat=0 / constrained_intra=0 / bframes=8 / b_pyramid=2 / b_adapt=2 / b_bias=0 / direct=1 / weightb=1 / open_gop=0 / weightp=2 / keyint=240 / keyint_min=23 / scenecut=40 / intra_refresh=0 / rc_lookahead=40 / rc=crf / mbtree=0 / crf=18.0 / qcomp=0.60 / qpmin=0 / qpmax=69 / qpstep=4 / vbv_maxrate=50000 / vbv_bufsize=62500 / crf_max=0.0 / nal_hrd=none / filler=0 / ip_ratio=1.40 / pb_ratio=1.30 / aq=1:1.00
Language : Russian
Default : Yes
Forced : No
Color range : Limited
Color primaries : BT.709
Transfer characteristics : BT.709
Matrix coefficients : BT.709
Audio #1
ID : 2
Format : AC-3
Format/Info : Audio Coding 3
Codec ID : A_AC3
Duration : 2 h 6 min
Bit rate mode : Constant
Bit rate : 640 kb/s
Channel(s) : 6 channels
Channel positions : Front: L C R, Side: L R, LFE
Sampling rate : 48.0 kHz
Frame rate : 31.250 FPS (1536 SPF)
Bit depth : 16 bits
Compression mode : Lossy
Stream size : 577 MiB (3%)
Title : Dub
Language : Russian
Service kind : Complete Main
Default : Yes
Forced : No
Audio #2
ID : 3
Format : AC-3
Format/Info : Audio Coding 3
Codec ID : A_AC3
Duration : 2 h 6 min
Bit rate mode : Constant
Bit rate : 640 kb/s
Channel(s) : 6 channels
Channel positions : Front: L C R, Side: L R, LFE
Sampling rate : 48.0 kHz
Frame rate : 31.250 FPS (1536 SPF)
Bit depth : 16 bits
Compression mode : Lossy
Stream size : 577 MiB (3%)
Title : MVO Kravec
Language : Russian
Service kind : Complete Main
Default : No
Forced : No
Audio #3
ID : 4
Format : DTS
Format/Info : Digital Theater Systems
Codec ID : A_DTS
Duration : 2 h 6 min
Bit rate mode : Constant
Bit rate : 1 509 kb/s
Channel(s) : 6 channels
Channel positions : Front: L C R, Side: L R, LFE
Sampling rate : 48.0 kHz
Frame rate : 93.750 FPS (512 SPF)
Bit depth : 24 bits
Compression mode : Lossy
Stream size : 1.33 GiB (7%)
Title : VO Gavrilov
Language : Russian
Default : No
Forced : No
Audio #4
ID : 5
Format : DTS
Format/Info : Digital Theater Systems
Codec ID : A_DTS
Duration : 2 h 6 min
Bit rate mode : Constant
Bit rate : 1 509 kb/s
Channel(s) : 6 channels
Channel positions : Front: L C R, Side: L R, LFE
Sampling rate : 48.0 kHz
Frame rate : 93.750 FPS (512 SPF)
Bit depth : 24 bits
Compression mode : Lossy
Stream size : 1.33 GiB (7%)
Title : VO Korolev
Language : Russian
Default : No
Forced : No
Audio #5
ID : 6
Format : AC-3
Format/Info : Audio Coding 3
Codec ID : A_AC3
Duration : 2 h 6 min
Bit rate mode : Constant
Bit rate : 640 kb/s
Channel(s) : 6 channels
Channel positions : Front: L C R, Side: L R, LFE
Sampling rate : 48.0 kHz
Frame rate : 31.250 FPS (1536 SPF)
Bit depth : 16 bits
Compression mode : Lossy
Stream size : 577 MiB (3%)
Language : English
Service kind : Complete Main
Default : No
Forced : No
Text #1
ID : 7
Format : UTF-8
Codec ID : S_TEXT/UTF8
Codec ID/Info : UTF-8 Plain Text
Duration : 1 h 3 min
Bit rate : 2 b/s
Count of elements : 37
Stream size : 1.13 KiB (0%)
Title : Forced
Language : Russian
Default : Yes
Forced : No
Text #2
ID : 8
Format : UTF-8
Codec ID : S_TEXT/UTF8
Codec ID/Info : UTF-8 Plain Text
Duration : 2 h 4 min
Bit rate : 87 b/s
Count of elements : 1347
Stream size : 79.8 KiB (0%)
Language : Russian
Default : No
Forced : No
Text #3
ID : 9
Format : UTF-8
Codec ID : S_TEXT/UTF8
Codec ID/Info : UTF-8 Plain Text
Duration : 2 h 4 min
Bit rate : 59 b/s
Count of elements : 1339
Stream size : 54.5 KiB (0%)
Language : English
Default : No
Forced : No
Menu
00:00:00.000 : en:Start / Surpise Attack
00:04:20.000 : en:Las Vegas
00:09:06.350 : en:The Morning After / Meet Pepper Potts
00:12:26.000 : en:Jet-Set Babysitter
00:14:17.600 : en:The Presentation: "That's How Dad Did It"
00:18:00.579 : en:Survived: Electric Heart
00:26:03.000 : en:The Plans: Our Ticket Out
00:32:07.000 : en:The Escape
00:41:00.000 : en:The Rescue
00:42:00.000 : en:The Return
00:52:38.488 : en:The Hanger: Old Friends
00:54:54.500 : en:The Aftermath: Picking Up The Pieces
00:59:24.644 : en:Test Flight
01:07:32.423 : en:A Night On The Town
01:13:36.300 : en:Goalmari: Righting Wrongs
01:18:31.206 : en:Unidentified Bogie
01:24:40.575 : en:The Gift Of Iron Soldiers
01:35:00.111 : en:Arc Reaction
01:35:46.100 : en:The Heartless Man
01:43:04.000 : en:Iron Man vs. Monster Man
01:53:31.471 : en:Official Statement
01:57:18.000 : en:End Credits


_________________
Проголосуй за трекер Открытый торрент трекер - RUS-MEDIA.ORG

Проголосуй Открытый торрент трекер - RUS-MEDIA.ORG


Вернуться к началу
 Профиль Отправить личное сообщение  
 
   Похожие торренты   Автор   Торрент   Размер 
В этой теме нет новых непрочитанных сообщений. Железный человек / Iron Man [фантастика, боевик, приключения, 2008] UHD BDRemux 2160p, Dub [4K]

salma3

12 | 8

64.43 ГБ

В этой теме нет новых непрочитанных сообщений. Прометей / Prometheus [фантастика, триллер, приключения, 2012] Hybrid 1080p, Dub [Open Matte]

salma3

0 | 0

33.7 ГБ

В этой теме нет новых непрочитанных сообщений. Прометей / Prometheus [фантастика, триллер, приключения, 2012] Hybrid 1080p, Dub [Open Matte]

salma3

0 | 0

33.7 ГБ

В этой теме нет новых непрочитанных сообщений. Человек-паук 2 / Spider-Man 2 [фантастика, боевик, приключения, 2004] WEB-DL 1080p, Dub [Open Matte]

salma3

41 | 17

13.8 ГБ

В этой теме нет новых непрочитанных сообщений. Железный человек 3 / Iron Man 3 [фантастика, боевик, приключения, 2013] UHD BDRemux 2160p, Dub [4K]

salma3

10 | 15

68.28 ГБ

В этой теме нет новых непрочитанных сообщений. Осада / The Siege [боевик, триллер, драма, криминал, 1998] Hybrid 1080p, Dub [Open Matte]

salma3

18 | 3

15.52 ГБ

В этой теме нет новых непрочитанных сообщений. Идентификация Борна / The Bourne Identity [боевик, триллер, детектив, 2002] Hybrid 1080p, Dub [Open Matte]

salma3

0 | 0

19.14 ГБ


Начать новую тему Ответить на тему  [ 1 сообщение ] 




Для Мосгорсуда, Роскомнадзора и рекламодателей:: mosgorsud-torrent[собачка]yandex.ru
cron