Торрент файл
скачать торрент магнет ссылка Добавлен: 19 май 2018, 11:09
Размер: 80.06 ГБ
Сидеров: 0
Личеров: 1
Статус: (salma3)
Автор

СообщениеДобавлено: 19 май 2018, 11:09 

Не в сети
Супермодератор
Аватара пользователя
Дата регистрации:
15 фев 2012, 16:44
Возраст: 28
Спасибо: 7290 / 2147
Сообщения: 70686
Год выхода: 1995
Жанр: Исторический, драма, военный
Режиссер: Мэл Гибсон

В ролях: Мел Гибсон, Софи Марсо, Кэтрин МакКормак, Патрик МакГуэн, Ангус Макфэдьен, Брендан Глисон, Дэвид О'Хара, Иэн Бэннен, Шон Лоулор, Сэнди Нельсон, Джеймс Космо, Шон МакГинли, Элан Толл, Брайан Кокс, Питер Хэнли

О фильме:
Действие фильма начинается в 1280 году в Шотландии. Это история легендарного национального героя Уильяма Уоллеса, посвятившего себя борьбе с англичанами при короле Эдварде Длинноногом.Он рано лишился отца, погибшего от рук англичан, и его забрал к себе дядя Оргайл, который дал ему хорошее образование в Европе. На родину Уильям возвращается уже взрослым человеком, мечтающим завести семью и жить мирной жизнью.Но судьба распорядилась иначе. Его невесту убили англичане, и он начал свой крестовый поход за свободу.



Страна: США
Продолжительность: 02:57:43
Перевод: Дублированный,профессиональный многоголосый,профессиональный двухголосый,авторский,студийный любительский одноголосый

Файл
Кодек: H.265
Качество: UHD BDRemux 2160p
Видео: HEVC HDR, 51.6 Mбит/с, 3840x2160, 23.976 кадр/с
Звук:
Русский (DTS, 6 ch, 755 Кбит/с) / Дублированный [Blu-ray CEE]
Русский (АС3, 6 ch, 384 Кбит/с) / Профессиональный (многоголосый закадровый) н/о ?
Русский (АС3, 6 ch, 640 Кбит/с) / Профессиональный (многоголосый закадровый) н/о ?
Русский (АС3, 2 ch, 224 Кбит/с) / Профессиональный (многоголосый закадровый) ОРТ
Русский (АС3, 2 ch, 224 Кбит/с) / Профессиональный (многоголосый закадровый) Лазер Видео
Русский (АС3, 2 ch, 224 Кбит/с) / Профессиональный (многоголосый закадровый) Премьер Видео Фильм
Русский (АС3, 6 ch, 448 Кбит/с) / Профессиональный (многоголосый закадровый) Киномания
Русский (АС3, 6 ch, 640 Кбит/с) / Профессиональный (двухголосый закадровый) П. Гланц и И. Королёва
Русский (АС3, 6 ch, 640 Кбит/с) / Профессиональный (многоголосый закадровый) LDV
Русский (АС3, 6 ch, 640 Кбит/с) / Авторский (одноголосый закадровый) А. Гаврилов
Русский (АС3, 6 ch, 640 Кбит/с) / Авторский (одноголосый закадровый) Д. Есарев
Русский (АС3, 6 ch, 640 Кбит/с) / Авторский (одноголосый закадровый) С. Визгунов (поздний)
Русский (АС3, 2 ch, 192 Кбит/с) / Авторский (одноголосый закадровый) С. Визгунов (ранний)
Русский (АС3, 2 ch, 224 Кбит/с) / Авторский (одноголосый закадровый) А. Кашкин
Русский (АС3, 2 ch, 192 Кбит/с) / Студийный любительский (одноголосый закадровый) Орбита
Украинский (AC3, 2 ch, 192 Кбит/с) / Профессиональный (многоголосый закадровый) ТЕТ
Украинский (AC3, 2 ch, 192 Кбит/с) / Профессиональный (двухголосый закадровый) ICTV
Английский (TrueHD+Atmos, 8 ch, 5106 Кбит/с)
Английский (AC3, 6 ch, 640 Кбит/с)
Субтитры: Русские (Forced,Full), Английские
Семпл
General
Unique ID : 77186938242085067057923224674532476909 (0x3A11A9DF90F4A495D90F1A99038647ED)
Complete name : C:UsersPublicVideosSample VideosRARBGBraveheart.1995.2160p.BluRay.HEVCFinalBraveheart.1995.BDRemux.2160p.HDR.MediaClub.mkv
Format : Matroska
Format version : Version 4 / Version 2
File size : 80.1 GiB
Duration : 2 h 57 min
Overall bit rate mode : Variable
Overall bit rate : 64.5 Mb/s
Encoded date : UTC 2018-05-18 08:36:49
Writing application : mkvmerge v19.0.0 ('Brave Captain') 64-bit
Writing library : libebml v1.3.5 + libmatroska v1.4.8
Cover : Yes
Attachments : cover.jpg
Video
ID : 1
Format : HEVC
Format/Info : High Efficiency Video Coding
Commercial name : HDR10
Format profile : Main 10@L5.1@High
Codec ID : V_MPEGH/ISO/HEVC
Duration : 2 h 57 min
Bit rate : 51.6 Mb/s
Width : 3 840 pixels
Height : 2 160 pixels
Display aspect ratio : 16:9
Frame rate mode : Constant
Frame rate : 23.976 (24000/1001) FPS
Color space : YUV
Chroma subsampling : 4:2:0 (Type 2)
Bit depth : 10 bits
Bits/(Pixel*Frame) : 0.259
Stream size : 64.0 GiB (80%)
Title : BDRemux.2160p.HDR by Silverok
Default : Yes
Forced : No
Color range : Limited
Color primaries : BT.2020
Transfer characteristics : PQ
Matrix coefficients : BT.2020 non-constant
Mastering display color primaries : BT.709
Mastering display luminance : min: 0.0001 cd/m2, max: 1000 cd/m2
Audio #1
ID : 2
Format : DTS
Format/Info : Digital Theater Systems
Codec ID : A_DTS
Duration : 2 h 57 min
Bit rate mode : Constant
Bit rate : 755 kb/s
Channel(s) : 6 channels
Channel positions : Front: L C R, Side: L R, LFE
Sampling rate : 48.0 kHz
Frame rate : 93.750 FPS (512 SPF)
Bit depth : 24 bits
Compression mode : Lossy
Stream size : 976 MiB (1%)
Title : Профессиональный (дублированный) Blu-ray CEE
Language : Russian
Default : Yes
Forced : No
Audio #2
ID : 3
Format : AC-3
Format/Info : Audio Coding 3
Codec ID : A_AC3
Duration : 2 h 57 min
Bit rate mode : Constant
Bit rate : 384 kb/s
Channel(s) : 6 channels
Channel positions : Front: L C R, Side: L R, LFE
Sampling rate : 48.0 kHz
Frame rate : 31.250 FPS (1536 SPF)
Bit depth : 16 bits
Compression mode : Lossy
Stream size : 488 MiB (1%)
Title : Профессиональный (многоголосый закадровый) н/о ?
Language : Russian
Service kind : Complete Main
Default : No
Forced : No
Audio #3
ID : 4
Format : AC-3
Format/Info : Audio Coding 3
Codec ID : A_AC3
Duration : 2 h 57 min
Bit rate mode : Constant
Bit rate : 640 kb/s
Channel(s) : 6 channels
Channel positions : Front: L C R, Side: L R, LFE
Sampling rate : 48.0 kHz
Frame rate : 31.250 FPS (1536 SPF)
Bit depth : 16 bits
Compression mode : Lossy
Stream size : 814 MiB (1%)
Title : Профессиональный (многоголосый закадровый) н/о ?
Language : Russian
Service kind : Complete Main
Default : No
Forced : No
Audio #4
ID : 5
Format : AC-3
Format/Info : Audio Coding 3
Codec ID : A_AC3
Duration : 2 h 57 min
Bit rate mode : Constant
Bit rate : 224 kb/s
Channel(s) : 2 channels
Channel positions : Front: L R
Sampling rate : 48.0 kHz
Frame rate : 31.250 FPS (1536 SPF)
Bit depth : 16 bits
Compression mode : Lossy
Stream size : 285 MiB (0%)
Title : Профессиональный (многоголосый закадровый) ОРТ
Language : Russian
Service kind : Complete Main
Default : No
Forced : No
Audio #5
ID : 6
Format : AC-3
Format/Info : Audio Coding 3
Codec ID : A_AC3
Duration : 2 h 57 min
Bit rate mode : Constant
Bit rate : 224 kb/s
Channel(s) : 2 channels
Channel positions : Front: L R
Sampling rate : 48.0 kHz
Frame rate : 31.250 FPS (1536 SPF)
Bit depth : 16 bits
Compression mode : Lossy
Stream size : 285 MiB (0%)
Title : Профессиональный (многоголосый закадровый) Лазер Видео
Language : Russian
Service kind : Complete Main
Default : No
Forced : No
Audio #6
ID : 7
Format : AC-3
Format/Info : Audio Coding 3
Codec ID : A_AC3
Duration : 2 h 57 min
Bit rate mode : Constant
Bit rate : 224 kb/s
Channel(s) : 2 channels
Channel positions : Front: L R
Sampling rate : 48.0 kHz
Frame rate : 31.250 FPS (1536 SPF)
Bit depth : 16 bits
Compression mode : Lossy
Stream size : 285 MiB (0%)
Title : Профессиональный (многоголосый закадровый) Премьер Видео Фильм
Language : Russian
Service kind : Complete Main
Default : No
Forced : No
Audio #7
ID : 8
Format : AC-3
Format/Info : Audio Coding 3
Codec ID : A_AC3
Duration : 2 h 57 min
Bit rate mode : Constant
Bit rate : 448 kb/s
Channel(s) : 6 channels
Channel positions : Front: L C R, Side: L R, LFE
Sampling rate : 48.0 kHz
Frame rate : 31.250 FPS (1536 SPF)
Bit depth : 16 bits
Compression mode : Lossy
Stream size : 569 MiB (1%)
Title : Профессиональный (многоголосый закадровый) Киномания
Language : Russian
Service kind : Complete Main
Default : No
Forced : No
Audio #8
ID : 9
Format : AC-3
Format/Info : Audio Coding 3
Codec ID : A_AC3
Duration : 2 h 57 min
Bit rate mode : Constant
Bit rate : 640 kb/s
Channel(s) : 6 channels
Channel positions : Front: L C R, Side: L R, LFE
Sampling rate : 48.0 kHz
Frame rate : 31.250 FPS (1536 SPF)
Bit depth : 16 bits
Compression mode : Lossy
Stream size : 814 MiB (1%)
Title : Профессиональный (двухголосый закадровый) П. Гланц и И. Королёва
Language : Russian
Service kind : Complete Main
Default : No
Forced : No
Audio #9
ID : 10
Format : AC-3
Format/Info : Audio Coding 3
Codec ID : A_AC3
Duration : 2 h 57 min
Bit rate mode : Constant
Bit rate : 640 kb/s
Channel(s) : 6 channels
Channel positions : Front: L C R, Side: L R, LFE
Sampling rate : 48.0 kHz
Frame rate : 31.250 FPS (1536 SPF)
Bit depth : 16 bits
Compression mode : Lossy
Stream size : 814 MiB (1%)
Title : Профессиональный (многоголосый закадровый) LDV
Language : Russian
Service kind : Complete Main
Default : No
Forced : No
Audio #10
ID : 11
Format : AC-3
Format/Info : Audio Coding 3
Codec ID : A_AC3
Duration : 2 h 57 min
Bit rate mode : Constant
Bit rate : 640 kb/s
Channel(s) : 6 channels
Channel positions : Front: L C R, Side: L R, LFE
Sampling rate : 48.0 kHz
Frame rate : 31.250 FPS (1536 SPF)
Bit depth : 16 bits
Compression mode : Lossy
Stream size : 814 MiB (1%)
Title : Авторский (одноголосый закадровый) А. Гаврилов
Language : Russian
Service kind : Complete Main
Default : No
Forced : No
Audio #11
ID : 12
Format : AC-3
Format/Info : Audio Coding 3
Codec ID : A_AC3
Duration : 2 h 57 min
Bit rate mode : Constant
Bit rate : 640 kb/s
Channel(s) : 6 channels
Channel positions : Front: L C R, Side: L R, LFE
Sampling rate : 48.0 kHz
Frame rate : 31.250 FPS (1536 SPF)
Bit depth : 16 bits
Compression mode : Lossy
Stream size : 814 MiB (1%)
Title : Авторский (одноголосый закадровый) Д. Есарев
Language : Russian
Service kind : Complete Main
Default : No
Forced : No
Audio #12
ID : 13
Format : AC-3
Format/Info : Audio Coding 3
Codec ID : A_AC3
Duration : 2 h 57 min
Bit rate mode : Constant
Bit rate : 640 kb/s
Channel(s) : 6 channels
Channel positions : Front: L C R, Side: L R, LFE
Sampling rate : 48.0 kHz
Frame rate : 31.250 FPS (1536 SPF)
Bit depth : 16 bits
Compression mode : Lossy
Stream size : 814 MiB (1%)
Title : Авторский (одноголосый закадровый) С. Визгунов (поздний)
Language : Russian
Service kind : Complete Main
Default : No
Forced : No
Audio #13
ID : 14
Format : AC-3
Format/Info : Audio Coding 3
Codec ID : A_AC3
Duration : 2 h 57 min
Bit rate mode : Constant
Bit rate : 192 kb/s
Channel(s) : 2 channels
Channel positions : Front: L R
Sampling rate : 48.0 kHz
Frame rate : 31.250 FPS (1536 SPF)
Bit depth : 16 bits
Compression mode : Lossy
Stream size : 244 MiB (0%)
Title : Авторский (одноголосый закадровый) С. Визгунов (ранний)
Language : Russian
Service kind : Complete Main
Default : No
Forced : No
Audio #14
ID : 15
Format : AC-3
Format/Info : Audio Coding 3
Codec ID : A_AC3
Duration : 2 h 57 min
Bit rate mode : Constant
Bit rate : 224 kb/s
Channel(s) : 2 channels
Channel positions : Front: L R
Sampling rate : 48.0 kHz
Frame rate : 31.250 FPS (1536 SPF)
Bit depth : 16 bits
Compression mode : Lossy
Stream size : 285 MiB (0%)
Title : Авторский (одноголосый закадровый) А. Кашкин
Language : Russian
Service kind : Complete Main
Default : No
Forced : No
Audio #15
ID : 16
Format : AC-3
Format/Info : Audio Coding 3
Codec ID : A_AC3
Duration : 2 h 57 min
Bit rate mode : Constant
Bit rate : 192 kb/s
Channel(s) : 2 channels
Channel positions : Front: L R
Sampling rate : 48.0 kHz
Frame rate : 31.250 FPS (1536 SPF)
Bit depth : 16 bits
Compression mode : Lossy
Stream size : 244 MiB (0%)
Title : Студийный (одноголосый закадровый) Орбита
Language : Russian
Service kind : Complete Main
Default : No
Forced : No
Audio #16
ID : 17
Format : AC-3
Format/Info : Audio Coding 3
Codec ID : A_AC3
Duration : 2 h 57 min
Bit rate mode : Constant
Bit rate : 192 kb/s
Channel(s) : 2 channels
Channel positions : Front: L R
Sampling rate : 48.0 kHz
Frame rate : 31.250 FPS (1536 SPF)
Bit depth : 16 bits
Compression mode : Lossy
Stream size : 244 MiB (0%)
Title : Многоголосый закадровый, ТЕТ
Language : Ukrainian
Service kind : Complete Main
Default : No
Forced : No
Audio #17
ID : 18
Format : AC-3
Format/Info : Audio Coding 3
Codec ID : A_AC3
Duration : 2 h 57 min
Bit rate mode : Constant
Bit rate : 192 kb/s
Channel(s) : 2 channels
Channel positions : Front: L R
Sampling rate : 48.0 kHz
Frame rate : 31.250 FPS (1536 SPF)
Bit depth : 16 bits
Compression mode : Lossy
Stream size : 244 MiB (0%)
Title : Двухголосый закадровый, ICTV
Language : Ukrainian
Service kind : Complete Main
Default : No
Forced : No
Audio #18
ID : 23
Format : TrueHD
Format profile : TrueHD+Atmos / TrueHD
Codec ID : A_TRUEHD
Duration : 2 h 57 min
Bit rate mode : Variable
Bit rate : 5 106 kb/s
Maximum bit rate : 8 013 kb/s
Channel(s) : Object Based / 8 channels
Channel positions : Object Based / Front: L C R, Side: L R, Back: L R, LFE
Sampling rate : / 48.0 kHz
Frame rate : 1 200.000 FPS (40 SPF)
Compression mode : Lossless
Delay relative to video : 2 s 169 ms
Stream size : 6.34 GiB (8%)
Language : English
Default : No
Forced : No
Audio #19
ID : 24
Format : AC-3
Format/Info : Audio Coding 3
Codec ID : A_AC3
Duration : 2 h 57 min
Bit rate mode : Constant
Bit rate : 640 kb/s
Channel(s) : 6 channels
Channel positions : Front: L C R, Side: L R, LFE
Sampling rate : 48.0 kHz
Frame rate : 31.250 FPS (1536 SPF)
Bit depth : 16 bits
Compression mode : Lossy
Delay relative to video : 2 s 169 ms
Stream size : 813 MiB (1%)
Language : English
Service kind : Complete Main
Default : No
Forced : No
Text #1
ID : 19
Format : UTF-8
Codec ID : S_TEXT/UTF8
Codec ID/Info : UTF-8 Plain Text
Duration : 1 h 57 min
Bit rate : 2 b/s
Count of elements : 39
Stream size : 1.87 KiB (0%)
Title : Forced
Language : Russian
Default : Yes
Forced : No
Text #2
ID : 20
Format : UTF-8
Codec ID : S_TEXT/UTF8
Codec ID/Info : UTF-8 Plain Text
Duration : 2 h 56 min
Bit rate : 47 b/s
Count of elements : 1008
Stream size : 61.6 KiB (0%)
Title : Full (Blu-ray EUR)
Language : Russian
Default : No
Forced : No
Text #3
ID : 21
Format : UTF-8
Codec ID : S_TEXT/UTF8
Codec ID/Info : UTF-8 Plain Text
Duration : 2 h 48 min
Bit rate : 51 b/s
Count of elements : 1177
Stream size : 63.7 KiB (0%)
Title : Full
Language : Russian
Default : No
Forced : No
Text #4
ID : 22
Format : UTF-8
Codec ID : S_TEXT/UTF8
Codec ID/Info : UTF-8 Plain Text
Duration : 2 h 48 min
Bit rate : 30 b/s
Count of elements : 1241
Stream size : 37.5 KiB (0%)
Title : Full
Language : English
Default : No
Forced : No
Menu
00:00:00.000 : en:The Wits of Men
00:07:25.528 : en:Courage and a Free Heart
00:16:23.857 : en:The Trouble with Scotland
00:22:00.693 : en:A Nobleman's Rights
00:34:16.887 : en:No Other, Forever
00:39:49.679 : en:Application and Consequences of Laws
00:56:04.987 : en:Gathering to Rebel
01:00:01.264 : en:Ruthless Compromise
01:07:28.043 : en:Madmen and Spies
01:11:51.932 : en:Are You Ready for War
01:18:59.734 : en:Terms and Offers
01:33:03.203 : en:Guardian of Scotland
01:43:44.719 : en:Negotiating with a Princess
01:53:55.453 : en:Unity and Betrayal
01:58:58.465 : en:Lands of Death
02:17:15.477 : en:To Capture a Legend
02:24:19.150 : en:The Pledge of the Bruce
02:28:49.796 : en:The Crown's Price
02:34:12.409 : en:A Queens Plea for Mercy
02:36:32.091 : en:Freedom!
02:46:54.085 : en:Bleed with Me
02:50:42.522 : en:Credits

Релиз от: | Silverok


_________________
Проголосуй за трекер Открытый торрент трекер - RUS-MEDIA.ORG

Проголосуй Открытый торрент трекер - RUS-MEDIA.ORG


Вернуться к началу
 Профиль Отправить личное сообщение  
 
   Похожие торренты   Автор   Торрент   Размер 
В этой теме нет новых непрочитанных сообщений. Храброе сердце / Braveheart [Исторический, драма, военный, 1995] BDRip-HEVC 2160p, Dub [4K]

salma3

3 | 20

67.16 ГБ

В этой теме нет новых непрочитанных сообщений. Храброе сердце / Braveheart [Драма, военный, биография, история, 1995] BDRemux, 5Mvo+6Avo+Dvo+Sub

salma3

6 | 8

65.64 ГБ

В этой теме нет новых непрочитанных сообщений. Храброе сердце / Braveheart (Мэл Гибсон) [1995, боевик, драма, военный, биография, BDRip, 1080p]

marya111

0 | 1

16.91 ГБ

В этой теме нет новых непрочитанных сообщений. Храброе сердце / Braveheart [драма, военный, биография, история, 1995] BDRip 720p, Dub [iPad]

salma3

10 | 1

4.92 ГБ

В этой теме нет новых непрочитанных сообщений. Джой / Joy [Драма, комедия, биография, исторический, 2015] UHD BDRemux 2160p, Dub [4K] [Лицензия]

salma3

9 | 2

41.03 ГБ

В этой теме нет новых непрочитанных сообщений. Аполлон 13 / Apollo 13 [драма, приключения, история, 1995] UHD BDRemux 2160p, Dub [4K]

salma3

8 | 20

50.96 ГБ

В этой теме нет новых непрочитанных сообщений. Аполлон 13 / Apollo 13 [Драма, катастрофа, история, 1995] UHD BDRemux 2160p, Dub [4K]

salma3

15 | 4

43.9 ГБ


Начать новую тему Ответить на тему  [ 1 сообщение ] 




Для Мосгорсуда, Роскомнадзора и рекламодателей:: mosgorsud-torrent[собачка]yandex.ru
cron