COVID-19 - Последняя информация о коронавирусе на сайте Минздрава




Торрент файл
скачать торрент магнет ссылка Добавлен: 17 май 2018, 20:26
Размер: 5.75 ГБ
Сидеров: 2
Личеров: 51
Статус: (salma3)
Автор

СообщениеДобавлено: 17 май 2018, 20:26 

Не в сети
Супермодератор
Аватара пользователя
Дата регистрации:
15 фев 2012, 16:44
Возраст: 31
Спасибо: 8277 / 2148
Сообщения: 96623
Год выхода: 2007
Жанр: боевик
Режиссер: Филипп Джей Атвилл

В ролях: Джет Ли, Джейсон Стэйтем, Джон Лоне, Девон Аоки, Луис Гусман, Сауль Рубинек, Рио Ишибаси, Санг Кенг, Мэтью Ст. Патрик, Надин Веласкес, Андреа Рот, Кеннет Чои, Марк Чэн, Кэйн Косуги, Кеннеди

О фильме:
Уже долгое время полиция не может поймать циничного и беспощадного убийцу. Киллер экстра-класса, о чьей жестокости ходят легенды даже в криминальном мире, практически неуязвим. Играючи, он выскальзывает из какой угодно ловушки и уходит от любой погони, оставляя за собой горы трупов. Агент ФБР Джек Кроуфорд принимает участие в расследовании. Потеряв напарника в одной из схваток с убийцей, он преследует только одну цель - уничтожить неуловимого киллера!



Страна: США
Продолжительность: 01:43:07
Перевод: Дублированный, профессиональный (многоголосый, закадровый), профессиональный (двухголосый, закадровый), авторский (одноголосый, закадровый)

Файл
Кодек: H.264
Качество: BDRip 720p
Видео: AVC, 1280x534 (2.40:1), 23.976 fps, 5 152 Kbps (0.314 bit/pixel)
Аудио #1: AC-3, 48.0 KHz, 6 ch, 448 Kbps, CBR (Russian) - дублированный
Аудио #2: AC-3, 48.0 KHz, 6 ch, 448 Kbps, CBR (Russian) - многоголосый (LostFilm)
Аудио #3: AC-3, 48.0 KHz, 2 ch, 224 Kbps, CBR (Russian) - двухголосый (Ren-TV)
Аудио #4: AC-3, 48.0 KHz, 6 ch, 448 Kbps, CBR (Russian) - авторский А.Гаврилов
Аудио #5: AC-3, 48.0 KHz, 6 ch, 384 Kbps, CBR (Russian) - авторский Ю. Живов
Аудио #6: AC-3, 48.0 KHz, 6 ch, 448 Kbps, CBR (Russian) - авторский М.Яроцкий
Аудио #7: AC-3, 48.0 KHz, 6 ch, 448 Kbps, CBR (English) - оригинал
Субтитры: Russian, English




Полное имя : D:ФИЛЬМЫВойна. 2007 (Джет Ли, Д.Стэйтем).k.e.n & MegaPeer.mkv
Формат : Matroska
Версия формата : Version 2
Размер файла : 5,75 Гбайт
Продолжительность : 1 ч. 43 м.
Общий поток : 7982 Кбит/сек
Дата кодирования : UTC 2018-05-17 06:35:55
Программа кодирования : mkvmerge v5.3.0 ('I could have danced') built on Feb 9 2012 10:38:07
Библиотека кодирования : libebml v1.2.3 + libmatroska v1.3.0
Attachments : poster.jpg
Видео
Идентификатор : 1
Формат : AVC
Формат/Информация : Advanced Video Codec
Профиль формата : High@L4.1
Параметр CABAC формата : Да
Параметр ReFrames формата : 12 кадров
Идентификатор кодека : V_MPEG4/ISO/AVC
Продолжительность : 1 ч. 43 м.
Битрейт : 5152 Кбит/сек
Ширина : 1280 пикселей
Высота : 534 пикселя
Соотношение сторон : 2,40:1
Режим частоты кадров : Постоянный
Частота кадров : 23,976 (24000/1001) кадра/сек
Цветовое пространство : YUV
Субдискретизация насыщенности : 4:2:0
Битовая глубина : 8 бит
Тип развёртки : Прогрессивная
Бит/(Пиксели*Кадры) : 0.314
Размер потока : 3,58 Гбайт (62%)
Библиотека кодирования : x264 core 146 r2538 121396c
Настройки программы : cabac=1 / ref=12 / deblock=1:-3:-3 / analyse=0x3:0x133 / me=umh / subme=11 / psy=1 / psy_rd=1.02:0.10 / mixed_ref=1 / me_range=32 / chroma_me=1 / trellis=2 / 8x8dct=1 / cqm=0 / deadzone=21,11 / fast_pskip=0 / chroma_qp_offset=-3 / threads=12 / lookahead_threads=3 / sliced_threads=0 / nr=0 / decimate=0 / interlaced=0 / bluray_compat=0 / constrained_intra=0 / bframes=12 / b_pyramid=2 / b_adapt=2 / b_bias=0 / direct=3 / weightb=1 / open_gop=0 / weightp=2 / keyint=240 / keyint_min=23 / scenecut=40 / intra_refresh=0 / rc=2pass / mbtree=0 / bitrate=5152 / ratetol=1.0 / qcomp=0.60 / qpmin=0 / qpmax=69 / qpstep=4 / cplxblur=20.0 / qblur=0.5 / ip_ratio=1.40 / pb_ratio=1.30 / aq=1:0.90
Язык : English
Default : Да
Forced : Нет
Аудио #1
Идентификатор : 2
Формат : AC-3
Формат/Информация : Audio Coding 3
Расширение режима : CM (complete main)
Параметр Endianness формата : Big
Идентификатор кодека : A_AC3
Продолжительность : 1 ч. 43 м.
Вид битрейта : Постоянный
Битрейт : 448 Кбит/сек
Каналы : 6 каналов
Расположение каналов : Front: L C R, Side: L R, LFE
Частота : 48,0 КГц
Частота кадров : 31,250 кадров/сек (1536 spf)
Битовая глубина : 16 бит
Метод сжатия : С потерями
Размер потока : 330 Мбайт (6%)
Заголовок : Дублированный
Язык : Russian
Default : Да
Forced : Да
Аудио #2
Идентификатор : 3
Формат : AC-3
Формат/Информация : Audio Coding 3
Расширение режима : CM (complete main)
Параметр Endianness формата : Big
Идентификатор кодека : A_AC3
Продолжительность : 1 ч. 43 м.
Вид битрейта : Постоянный
Битрейт : 448 Кбит/сек
Каналы : 6 каналов
Расположение каналов : Front: L C R, Side: L R, LFE
Частота : 48,0 КГц
Частота кадров : 31,250 кадров/сек (1536 spf)
Битовая глубина : 16 бит
Метод сжатия : С потерями
Размер потока : 330 Мбайт (6%)
Заголовок : Многоголосый (LostFilm)
Язык : Russian
Default : Нет
Forced : Нет
Аудио #3
Идентификатор : 4
Формат : AC-3
Формат/Информация : Audio Coding 3
Расширение режима : CM (complete main)
Параметр Endianness формата : Big
Идентификатор кодека : A_AC3
Продолжительность : 1 ч. 43 м.
Вид битрейта : Постоянный
Битрейт : 224 Кбит/сек
Каналы : 2 канала
Расположение каналов : Front: L R
Частота : 48,0 КГц
Частота кадров : 31,250 кадров/сек (1536 spf)
Битовая глубина : 16 бит
Метод сжатия : С потерями
Размер потока : 165 Мбайт (3%)
Заголовок : Двухголосый (Ren-TV)
Язык : Russian
Default : Нет
Forced : Нет
Аудио #4
Идентификатор : 5
Формат : AC-3
Формат/Информация : Audio Coding 3
Расширение режима : CM (complete main)
Параметр Endianness формата : Big
Идентификатор кодека : A_AC3
Продолжительность : 1 ч. 43 м.
Вид битрейта : Постоянный
Битрейт : 448 Кбит/сек
Каналы : 6 каналов
Расположение каналов : Front: L C R, Side: L R, LFE
Частота : 48,0 КГц
Частота кадров : 31,250 кадров/сек (1536 spf)
Битовая глубина : 16 бит
Метод сжатия : С потерями
Размер потока : 330 Мбайт (6%)
Заголовок : Авторский А.Гаврилов
Язык : Russian
Default : Нет
Forced : Нет
Аудио #5
Идентификатор : 6
Формат : AC-3
Формат/Информация : Audio Coding 3
Расширение режима : CM (complete main)
Параметр Endianness формата : Big
Идентификатор кодека : A_AC3
Продолжительность : 1 ч. 43 м.
Вид битрейта : Постоянный
Битрейт : 384 Кбит/сек
Каналы : 6 каналов
Расположение каналов : Front: L C R, Side: L R, LFE
Частота : 48,0 КГц
Частота кадров : 31,250 кадров/сек (1536 spf)
Битовая глубина : 16 бит
Метод сжатия : С потерями
Размер потока : 283 Мбайт (5%)
Заголовок : Авторский Ю.Живов
Язык : Russian
Default : Нет
Forced : Нет
Аудио #6
Идентификатор : 7
Формат : AC-3
Формат/Информация : Audio Coding 3
Расширение режима : CM (complete main)
Параметр Endianness формата : Big
Идентификатор кодека : A_AC3
Продолжительность : 1 ч. 43 м.
Вид битрейта : Постоянный
Битрейт : 448 Кбит/сек
Каналы : 6 каналов
Расположение каналов : Front: L C R, Side: L R, LFE
Частота : 48,0 КГц
Частота кадров : 31,250 кадров/сек (1536 spf)
Битовая глубина : 16 бит
Метод сжатия : С потерями
Размер потока : 330 Мбайт (6%)
Заголовок : Авторский М.Яроцкий
Язык : Russian
Default : Нет
Forced : Нет
Аудио #7
Идентификатор : 8
Формат : AC-3
Формат/Информация : Audio Coding 3
Расширение режима : CM (complete main)
Параметр Endianness формата : Big
Идентификатор кодека : A_AC3
Продолжительность : 1 ч. 43 м.
Вид битрейта : Постоянный
Битрейт : 448 Кбит/сек
Каналы : 6 каналов
Расположение каналов : Front: L C R, Side: L R, LFE
Частота : 48,0 КГц
Частота кадров : 31,250 кадров/сек (1536 spf)
Битовая глубина : 16 бит
Метод сжатия : С потерями
Размер потока : 330 Мбайт (6%)
Заголовок : Оригинал
Язык : English
Default : Нет
Forced : Нет
Текст #1
Идентификатор : 9
Формат : UTF-8
Идентификатор кодека : S_TEXT/UTF8
Идентификатор кодека/Информация : UTF-8 Plain Text
Заголовок : Русские
Язык : Russian
Default : Нет
Forced : Нет
Текст #2
Идентификатор : 10
Формат : UTF-8
Идентификатор кодека : S_TEXT/UTF8
Идентификатор кодека/Информация : UTF-8 Plain Text
Заголовок : Английские
Язык : English
Default : Нет
Forced : Нет
Меню
00:00:00.000 : :Chapter 01
00:08:00.062 : :Chapter 02
00:11:57.216 : :Chapter 03
00:18:35.531 : :Chapter 04
00:24:18.999 : :Chapter 05
00:29:22.427 : :Chapter 06
00:39:51.555 : :Chapter 07
00:47:45.487 : :Chapter 08
00:54:25.720 : :Chapter 09
00:58:10.195 : :Chapter 10
01:02:45.720 : :Chapter 11
01:08:18.511 : :Chapter 12
01:15:43.205 : :Chapter 13
01:23:56.740 : :Chapter 14
01:31:33.321 : :Chapter 15
01:36:55.518 : :Chapter 16
01:42:59.965 : :Chapter 17

Релиз: &


_________________
Проголосуй за трекер Открытый торрент трекер - RUS-MEDIA.ORG

Проголосуй Открытый торрент трекер - RUS-MEDIA.ORG


Скачать книги и аудио книги через торрент


Вернуться к началу
 Профиль Отправить личное сообщение  
 
   Похожие торренты   Автор   Торрент   Размер 
В этой теме нет новых непрочитанных сообщений. Мстители: Война бесконечности / Avengers: Infinity War [Фантастика, фэнтези, боевик, 2018] BDRip 720p, Dub [iTunes]

salma3

0 | 0

5.7 ГБ

В этой теме нет новых непрочитанных сообщений. Мстители: Война бесконечности / Avengers: Infinity War [Фантастика, фэнтези, боевик, 2018] BDRip 720p, Dub [Лицензия]

salma3

0 | 0

7.46 ГБ

В этой теме нет новых непрочитанных сообщений. Мстители: Война бесконечности / Avengers: Infinity War [Фантастика, фэнтези, боевик, 2018] BDRip 720p, Dub [iTunes]

salma3

0 | 0

7.19 ГБ

В этой теме нет новых непрочитанных сообщений. Мстители: Война бесконечности / Avengers: Infinity War [фантастика, фэнтези, боевик, 2018] BDRip 720p, Dub [Лицензия]

salma3

0 | 0

5.76 ГБ

В этой теме нет новых непрочитанных сообщений. Война / War [Боевик, 2007] Blu-Ray 1080p, Dub [Open Matte]

salma3

3 | 12

40.57 ГБ

В этой теме нет новых непрочитанных сообщений. Война миров / War of the Worlds [фантастика, триллер, приключения, 2005] BDRip 720p, Dub

salma3

0 | 0

5.97 ГБ

В этой теме нет новых непрочитанных сообщений. Мстители: Война бесконечности / Avengers: Infinity War [Фантастика, фэнтези, боевик, 2018] BDRip, Dub [Лицензия]

salma3

0 | 0

1.46 ГБ


Начать новую тему Ответить на тему  [ 1 сообщение ] 




Для Мосгорсуда, Роскомнадзора и рекламодателей:: rstracker[собака]yandex.ru
cron