Торрент файл
скачать торрент магнет ссылка Добавлен: 17 май 2018, 12:46
Размер: 2.67 ГБ
Сидеров: 83
Личеров: 40
Статус: (salma3)
Автор

СообщениеДобавлено: 17 май 2018, 12:46 

Не в сети
Супермодератор
Аватара пользователя
Дата регистрации:
15 фев 2012, 16:44
Возраст: 29
Спасибо: 7379 / 2147
Сообщения: 76148
Год выхода: 2018
Жанр: мелодрама, комедия
Режиссер: Винс Марселло

В ролях: Джои Кинг, Джейкоб Элорди, Молли Рингуолд, Джоэл Кортни, Фрэнсис Шолто-Дуглас, Меган Янг, Нэйтан Линн, Робби Такер, Джессика Саттон, Морн Виссер

О фильме:
Старшеклассница Эль — общительная, милая, но еще не испытавшая прелести поцелуев девушка. Ной — старший брат ее лучшего друга — дерзкий и ветреный, разбивший не одно девичье сердце. Решив однажды поучаствовать в «Будке поцелуев» на осеннем карнавале, Эль даже представить не могла, что подарит свой первый поцелуй Ною, и её жизнь изменится до неузнаваемости.



Страна: Великобритания
Продолжительность: 01:45:03
Перевод: Профессиональный [многоголосный, закадровый] [HDrezka Studio]

Файл
Кодек: H.264
Качество: WEBRip 720p
Видео: AVC, 1280x580 (2.2:1), 23.976 fps ~ 2800 Kbps
Звук:
AC3, 48 KHz, 2 ch ~ 384 Kb/s (русский)
AC3, 48 KHz, 6 ch ~ 384 Kb/s (английский)
Субтитры: английские, французские, немецкие, итальянские, португальские

Семпл

Общее
Уникальный идентификатор : 206540092436986666667822480251961389890 (0x9B622CC48C6196E6BCEB5F68FCBAB342)
Полное имя : Q:TorFthe.kissing.booth.2018.720p.mkv
Формат : Matroska
Версия формата : Version 2
Размер файла : 2,67 Гбайт
Продолжительность : 1 ч. 45 м.
Общий поток : 3645 Кбит/сек
Дата кодирования : UTC 2018-05-17 10:46:08
Программа кодирования : mkvmerge v5.4.0 ('Piper') built on Mar 10 2012 13:34:39
Библиотека кодирования : libebml v1.2.3 + libmatroska v1.3.0
DURATION : 01:43:28.911000000
NUMBER_OF_FRAMES : 1411
NUMBER_OF_BYTES : 41805
_STATISTICS_WRITING_APP : mkvmerge v8.3.0 ('Over the Horizon') 64bit
_STATISTICS_WRITING_DATE_UTC : 2018-05-11 08:07:16
_STATISTICS_TAGS : BPS DURATION NUMBER_OF_FRAMES NUMBER_OF_BYTES
Видео
Идентификатор : 1
Формат : AVC
Формат/Информация : Advanced Video Codec
Профиль формата : High@L4.1
Параметр CABAC формата : Да
Параметр ReFrames формата : 5 кадров
Идентификатор кодека : V_MPEG4/ISO/AVC
Продолжительность : 1 ч. 45 м.
Битрейт : 2804 Кбит/сек
Ширина : 1280 пикселей
Высота : 580 пикселей
Соотношение сторон : 2,2:1
Частота кадров : 23,976 кадра/сек
Цветовое пространство : YUV
Субдискретизация насыщенности : 4:2:0
Битовая глубина : 8 бит
Тип развёртки : Прогрессивная
Бит/(Пиксели*Кадры) : 0.158
Размер потока : 2,06 Гбайт (77%)
Библиотека кодирования : x264 core 155 r2901 7d0ff22
Настройки программы : cabac=1 / ref=5 / deblock=1:-3:-3 / analyse=0x3:0x113 / me=hex / subme=8 / psy=1 / psy_rd=1.00:0.15 / mixed_ref=1 / me_range=16 / chroma_me=1 / trellis=2 / 8x8dct=1 / cqm=0 / deadzone=21,11 / fast_pskip=0 / chroma_qp_offset=-2 / threads=12 / lookahead_threads=2 / sliced_threads=0 / nr=0 / decimate=1 / interlaced=0 / bluray_compat=0 / constrained_intra=0 / bframes=3 / b_pyramid=2 / b_adapt=2 / b_bias=0 / direct=3 / weightb=1 / open_gop=0 / weightp=2 / keyint=240 / keyint_min=23 / scenecut=40 / intra_refresh=0 / rc_lookahead=50 / rc=crf / mbtree=1 / crf=18.0 / qcomp=0.60 / qpmin=0 / qpmax=69 / qpstep=4 / ip_ratio=1.40 / aq=3:0.80
Язык : English
Default : Да
Forced : Нет
DURATION : 01:45:02.672000000
NUMBER_OF_FRAMES : 151113
NUMBER_OF_BYTES : 2264678992
_STATISTICS_WRITING_APP : mkvmerge v8.3.0 ('Over the Horizon') 64bit
_STATISTICS_WRITING_DATE_UTC : 2018-05-11 08:07:16
_STATISTICS_TAGS : BPS DURATION NUMBER_OF_FRAMES NUMBER_OF_BYTES
Аудио #1
Идентификатор : 2
Формат : AC-3
Формат/Информация : Audio Coding 3
Расширение режима : CM (complete main)
Идентификатор кодека : A_AC3
Продолжительность : 1 ч. 45 м.
Вид битрейта : Постоянный
Битрейт : 384 Кбит/сек
Каналы : 2 канала
Расположение каналов : Front: L R
Частота : 48,0 КГц
Битовая глубина : 16 бит
Метод сжатия : С потерями
Размер потока : 289 Мбайт (11%)
Заголовок : HDrezka Studio
Язык : Russian
Default : Да
Forced : Нет
Аудио #2
Идентификатор : 3
Формат : AC-3
Формат/Информация : Audio Coding 3
Расширение режима : CM (complete main)
Идентификатор кодека : A_AC3
Продолжительность : 1 ч. 45 м.
Вид битрейта : Постоянный
Битрейт : 384 Кбит/сек
Каналы : 6 каналов
Расположение каналов : Front: L C R, Side: L R, LFE
Частота : 48,0 КГц
Битовая глубина : 16 бит
Метод сжатия : С потерями
Размер потока : 289 Мбайт (11%)
Язык : English
Default : Нет
Forced : Нет
Текст #1
Идентификатор : 4
Формат : UTF-8
Идентификатор кодека : S_TEXT/UTF8
Идентификатор кодека/Информация : UTF-8 Plain Text
Язык : English
Default : Нет
Forced : Нет
Текст #2
Идентификатор : 5
Формат : UTF-8
Идентификатор кодека : S_TEXT/UTF8
Идентификатор кодека/Информация : UTF-8 Plain Text
Заголовок : Brazilian
Язык : Portuguese
Default : Нет
Forced : Нет
Текст #3
Идентификатор : 6
Формат : UTF-8
Идентификатор кодека : S_TEXT/UTF8
Идентификатор кодека/Информация : UTF-8 Plain Text
Язык : French
Default : Нет
Forced : Нет
Текст #4
Идентификатор : 7
Формат : UTF-8
Идентификатор кодека : S_TEXT/UTF8
Идентификатор кодека/Информация : UTF-8 Plain Text
Язык : German
Default : Нет
Forced : Нет
Текст #5
Идентификатор : 8
Формат : UTF-8
Идентификатор кодека : S_TEXT/UTF8
Идентификатор кодека/Информация : UTF-8 Plain Text
Язык : Italian
Default : Нет
Forced : Нет


_________________
Проголосуй за трекер Открытый торрент трекер - RUS-MEDIA.ORG

Проголосуй Открытый торрент трекер - RUS-MEDIA.ORG


Вернуться к началу
 Профиль Отправить личное сообщение  
 
   Похожие торренты   Автор   Торрент   Размер 
В этой теме нет новых непрочитанных сообщений. Будка поцелуев / The Kissing Booth [мелодрама, комедия, 2018] WEBRip 720p, Mvo [Jaskier]

salma3

0 | 0

3.44 ГБ

В этой теме нет новых непрочитанных сообщений. Будка поцелуев / The Kissing Booth [мелодрама, комедия, 2018] WEBRip, Mvo [Jaskier]

salma3

0 | 0

1.46 ГБ

В этой теме нет новых непрочитанных сообщений. Будка поцелуев / The Kissing Booth [мелодрама, комедия, 2018] WEB-DLRip, Mvo

salma3

147 | 27

1.46 ГБ

В этой теме нет новых непрочитанных сообщений. Будка поцелуев / The Kissing Booth [Мелодрама, комедия, 2018] WEB-DLRip AVC, Mvo

salma3

13 | 6

1.46 ГБ

В этой теме нет новых непрочитанных сообщений. Будка поцелуев / The Kissing Booth [Мелодрама, комедия, 2018] WEB-DL 1080p, Mvo

salma3

40 | 20

3.76 ГБ

В этой теме нет новых непрочитанных сообщений. Семь первых поцелуев / Cheotkiseuman ilgobbeonjjae [01-07 из 10] (Романтика, комедия, 2016) WEBRip 720p, WEBRip 1080i | L2

marya111

2 | 6

1.02 ГБ

В этой теме нет новых непрочитанных сообщений. Телефонная будка / Phone booth [Психологический триллер, детектив, 2002] HDRip-AVC, Mvo

salma3

15 | 1

746.35 МБ


Начать новую тему Ответить на тему  [ 1 сообщение ] 




Для Мосгорсуда, Роскомнадзора и рекламодателей:: mosgorsud-torrent[собачка]yandex.ru
cron