Торрент файл
скачать торрент магнет ссылка Добавлен: 15 май 2018, 11:48
Размер: 5.65 ГБ
Сидеров: 0
Личеров: 0
Статус: (salma3)
Автор

СообщениеДобавлено: 15 май 2018, 11:48 

Не в сети
Супермодератор
Аватара пользователя
Дата регистрации:
15 фев 2012, 16:44
Возраст: 28
Спасибо: 7290 / 2147
Сообщения: 70618
Год выхода: 1947
Жанр: Драма, вестерн, исторический
Режиссер: Сесил Блаунт Де Милль

В ролях: Гэри Купер, Полетт Годдар, Ховард Да Силва, Борис Карлофф, Сесил Келлауэй, Уорд Бонд, Вирджиния Кэмпбелл, Кэтрин Де Милль, Генри Уилкоксон, С. Обри Смит, Изабель Купер, Лекс Баркер, Эдди Альберт, Мэри Филд, Ллойд Бриджес, Алан Напье, Джейн Най, Ричард Гейнс, Майк Мазурки

О фильме:
По роману Нила Суонсона (Neil H. Swanson) "Иудино дерево". Лондон, 1763 год. Смертный приговор, вынесенный юной Эбигэйл Хэйл, заменен на ссылку в североамериканские колонии, где она должна провести в рабстве 14 лет. На борту корабля, везущего ее в Новый Мир, она привлекает внимание Гарта, продающего оружие индейцам, и тот немедленно устраивает аукцион. Чтобы не дать ей попасть в руки этого мрачного человека, капитан Крис Холден поднимает цену и выкупает Эбигэйл, а затем отпускает ее прежде, чем корабль достигнет земли. Гарт мошенническим путем присваивает бумаги на владение Эбигэйл и доверяет их своему помощнику Дэйву Боуну. Крис Холден узнает от своей невесты Дианы, что, пока его не было, та вышла замуж за его брата. В Питтсбурге рождается слух, будто индеец Понтиак объединяет под своим началом разрозненные местные племена, готовясь к массированному нападению на белых. Крису Холдену поручено отправиться к индейцам с миротворческой миссией.



Страна: США
Продолжительность: 02:26:41
Перевод: Профессиональный многоголосый (5-й канал СПб)

Файл
Кодек: x264
Качество: BDRip 720p
Видео: MPEG-4 AVC, 4809 Kбит/с, 976x720
Звук #1: AC3, 2 ch, 192 Кбит/с | Rus
Звук #2: DTS, 2 ch, 510 Кбит/с | Eng

Формат : Matroska
Версия формата : Version 2
Размер файла : 5,65 Гбайт
Продолжительность : 2 ч. 26 м.
Общий поток : 5513 Кбит/сек
Название фильма : Unconquered.1947.BDRip.720p.[zzZGVvv]
Дата кодирования : UTC 2018-05-15 03:51:48
Программа кодирования : mkvmerge v5.8.0 ('No Sleep / Pillow') built on Sep 2 2012 15:37:04
Библиотека кодирования : libebml v1.2.3 + libmatroska v1.3.0
Attachements : cover.jpg

Видео
Идентификатор : 1
Формат : AVC
Формат/Информация : Advanced Video Codec
Профиль формата : High@L4.1
Параметр CABAC формата : Да
Параметр ReFrames формата : 5 кадров
Идентификатор кодека : V_MPEG4/ISO/AVC
Продолжительность : 2 ч. 26 м.
Битрейт : 4809 Кбит/сек
Ширина : 976 пикселей
Высота : 720 пикселей
Соотношение сторон : 4:3
Режим частоты кадров : Постоянный
Частота кадров : 23,976 кадра/сек
Цветовое пространство : YUV
Субдискретизация насыщенности : 4:2:0
Битовая глубина : 8 бит
Тип развёртки : Прогрессивная
Бит/(Пиксели*Кадры) : 0.285
Размер потока : 4,82 Гбайт (85%)
Заголовок : Unconquered.1947.BDRip.720p
Библиотека кодирования : x264 core 155 r2901 7d0ff22
Настройки программы : cabac=1 / ref=5 / deblock=1:0:0 / analyse=0x3:0x113 / me=umh / subme=8 / psy=1 / psy_rd=1.00:0.00 / mixed_ref=1 / me_range=16 / chroma_me=1 / trellis=2 / 8x8dct=1 / cqm=0 / deadzone=21,11 / fast_pskip=0 / chroma_qp_offset=-2 / threads=18 / lookahead_threads=3 / sliced_threads=0 / nr=0 / decimate=1 / interlaced=0 / bluray_compat=0 / constrained_intra=0 / bframes=3 / b_pyramid=2 / b_adapt=1 / b_bias=0 / direct=1 / weightb=1 / open_gop=0 / weightp=2 / keyint=250 / keyint_min=23 / scenecut=40 / intra_refresh=0 / rc_lookahead=50 / rc=2pass / mbtree=1 / bitrate=4809 / ratetol=1.0 / qcomp=0.60 / qpmin=0 / qpmax=69 / qpstep=4 / cplxblur=20.0 / qblur=0.5 / ip_ratio=1.40 / aq=1:1.00
Язык : English
Default : Да
Forced : Нет

Аудио #1
Идентификатор : 2
Формат : AC-3
Формат/Информация : Audio Coding 3
Расширение режима : CM (complete main)
Параметр Endianness формата : Big
Идентификатор кодека : A_AC3
Продолжительность : 2 ч. 26 м.
Вид битрейта : Постоянный
Битрейт : 192 Кбит/сек
Каналы : 2 канала
Расположение каналов : Front: L R
Частота : 48,0 КГц
Метод сжатия : С потерями
Размер потока : 201 Мбайт (3%)
Заголовок : MVO (5-й канал СПб)
Язык : Russian
Default : Да
Forced : Нет

Аудио #2
Идентификатор : 3
Формат : DTS
Формат/Информация : Digital Theater Systems
Режим : 16
Параметр Endianness формата : Big
Идентификатор кодека : A_DTS
Продолжительность : 2 ч. 26 м.
Вид битрейта : Постоянный
Битрейт : 510 Кбит/сек
Каналы : 2 канала
Расположение каналов : Front: L R
Частота : 48,0 КГц
Битовая глубина : 24 бит
Метод сжатия : С потерями
Размер потока : 535 Мбайт (9%)
Заголовок : Original
Язык : English
Default : Нет
Forced : Нет


_________________
Проголосуй за трекер Открытый торрент трекер - RUS-MEDIA.ORG

Проголосуй Открытый торрент трекер - RUS-MEDIA.ORG


Вернуться к началу
 Профиль Отправить личное сообщение  
 
   Похожие торренты   Автор   Торрент   Размер 
В этой теме нет новых непрочитанных сообщений. Непобежденный / Unconquered [Драма, вестерн, исторический, 1947] BDRip 1080p, Mvo

salma3

0 | 0

10.02 ГБ

В этой теме нет новых непрочитанных сообщений. Джеронимо: Американская легенда / Geronimo: An American Legend [Исторический, драма, вестерн, 1993] BDRip 720p, Mvo

salma3

44 | 33

7.25 ГБ

В этой теме нет новых непрочитанных сообщений. Врата рая / Небесные врата / Heaven's Gate [драма, вестерн, исторический, 1980] BDRip 720p, Mvo [Full version]

salma3

0 | 0

7.75 ГБ

В этой теме нет новых непрочитанных сообщений. Джеронимо / Geronimo [Боевик, вестерн, исторический, 1962] BDRip 1080p, Dvo

salma3

0 | 0

8.55 ГБ

В этой теме нет новых непрочитанных сообщений. Одержимая / Possessed [триллер, драма, криминал, 1947] BDRip, Mvo

salma3

0 | 0

1.45 ГБ

В этой теме нет новых непрочитанных сообщений. Непрощенный / Unforgiven [Драма, вестерн, 1992] BDRip 720p, Dub

salma3

8 | 2

6.6 ГБ

В этой теме нет новых непрочитанных сообщений. В лабиринте молчания / Im Labyrinth des Schweigens [Исторический, драма, 2014] BDRip 720p, Mvo+Sub

salma3

124 | 18

7.67 ГБ


Начать новую тему Ответить на тему  [ 1 сообщение ] 




Для Мосгорсуда, Роскомнадзора и рекламодателей:: mosgorsud-torrent[собачка]yandex.ru
cron