Торрент файл
скачать торрент магнет ссылка Добавлен: 08 май 2018, 16:44
Размер: 3.82 ГБ
Сидеров: 10
Личеров: 8
Статус: (salma3)
Автор

СообщениеДобавлено: 08 май 2018, 16:44 

Не в сети
Супермодератор
Аватара пользователя
Дата регистрации:
15 фев 2012, 16:44
Возраст: 30
Спасибо: 8096 / 2147
Сообщения: 92368
Год выхода: 1967
Жанр: Триллер
Режиссер: Кертис Харрингтон

В ролях: Симона Синьоре, Джеймс Каан, Кэтрин Росс, Дон Страуд, Кент Смит, Эстель Уинвуд, Марджори Беннетт, Йен Вульф, Энтони Юстрел, Элуиз Хардт, Джордж Ферт, Питер Брокко, Уильям О’Коннелл, Эна Хартман, Джоэнн Мэдли, Джефф Скотт, Кармен Филлипс, Эддра Гэйл, Рэйчел Розенталь, Луана Андерс

О фильме:
Дженнифер и Пол Монтгомери – весьма эксцентричная пара. На протяжении трех лет своего супружества они стараются разнообразить свою семейную жизнь забавными безобидными играми. Но однажды в их жизни появляется очень странная продавщица косметики Лиза Шиндлер и рассказывает им совсем о других играх – опасных и серьезных. Пол и Дженнифер решают сыграть "по-взрослому" и так увлекаются, что не замечают, как переступают черту дозволенного...



Страна: США
Продолжительность: 01:40:19
Перевод: Профессиональный (многоголосый, закадровый)

Файл
Кодек: x.264
Качество: BDRip 720p
Видео: MPEG-4 AVC, 1280x544, 23.976 кадр/с, 4422 Kбит/с
Звук #1: AC3, 2 ch, 384 Кбит/с | RUS
Звук #2: AC3, 2 ch, 640 Кбит/с | ENG


Формат : Matroska
Версия формата : Version 2
Размер файла : 3,82 Гбайт
Продолжительность : 1 ч. 40 м.
Общий поток : 5447 Кбит/сек
Название фильма : Games.1967.BDRip.720p.[zzZGVvv]
Дата кодирования : UTC 2018-05-08 05:05:06
Программа кодирования : mkvmerge v5.8.0 ('No Sleep / Pillow') built on Sep 2 2012 15:37:04
Библиотека кодирования : libebml v1.2.3 + libmatroska v1.3.0
Attachements : cover.jpg
Видео
Идентификатор : 1
Формат : AVC
Формат/Информация : Advanced Video Codec
Профиль формата : High@L4.1
Параметр CABAC формата : Да
Параметр ReFrames формата : 5 кадров
Идентификатор кодека : V_MPEG4/ISO/AVC
Продолжительность : 1 ч. 40 м.
Битрейт : 4422 Кбит/сек
Ширина : 1280 пикселей
Высота : 544 пикселя
Соотношение сторон : 2,35:1
Режим частоты кадров : Постоянный
Частота кадров : 23,976 кадра/сек
Цветовое пространство : YUV
Субдискретизация насыщенности : 4:2:0
Битовая глубина : 8 бит
Тип развёртки : Прогрессивная
Бит/(Пиксели*Кадры) : 0.265
Размер потока : 3,02 Гбайт (79%)
Заголовок : Games.1967.BDRip.720p
Библиотека кодирования : x264 core 155 r2901 7d0ff22
Настройки программы : cabac=1 / ref=5 / deblock=1:-3:-3 / analyse=0x3:0x113 / me=umh / subme=8 / psy=1 / psy_rd=1.00:0.25 / mixed_ref=1 / me_range=24 / chroma_me=1 / trellis=1 / 8x8dct=1 / cqm=0 / deadzone=21,11 / fast_pskip=1 / chroma_qp_offset=-4 / threads=17 / lookahead_threads=2 / sliced_threads=0 / nr=0 / decimate=1 / interlaced=0 / bluray_compat=0 / constrained_intra=0 / bframes=3 / b_pyramid=2 / b_adapt=1 / b_bias=0 / direct=3 / weightb=1 / open_gop=0 / weightp=2 / keyint=240 / keyint_min=24 / scenecut=40 / intra_refresh=0 / rc_lookahead=50 / rc=2pass / mbtree=1 / bitrate=4422 / ratetol=1.0 / qcomp=0.60 / qpmin=0 / qpmax=69 / qpstep=4 / cplxblur=20.0 / qblur=0.5 / ip_ratio=1.40 / aq=1:0.75
Язык : English
Default : Да
Forced : Нет
Аудио #1
Идентификатор : 2
Формат : AC-3
Формат/Информация : Audio Coding 3
Расширение режима : CM (complete main)
Параметр Endianness формата : Big
Идентификатор кодека : A_AC3
Продолжительность : 1 ч. 40 м.
Вид битрейта : Постоянный
Битрейт : 384 Кбит/сек
Каналы : 2 канала
Расположение каналов : Front: L R
Частота : 48,0 КГц
Метод сжатия : С потерями
Размер потока : 276 Мбайт (7%)
Заголовок : MVO
Язык : Russian
Default : Да
Forced : Нет
Аудио #2
Идентификатор : 3
Формат : AC-3
Формат/Информация : Audio Coding 3
Расширение режима : CM (complete main)
Параметр Endianness формата : Big
Идентификатор кодека : A_AC3
Продолжительность : 1 ч. 40 м.
Вид битрейта : Постоянный
Битрейт : 640 Кбит/сек
Каналы : 2 канала
Расположение каналов : Front: L R
Частота : 48,0 КГц
Метод сжатия : С потерями
Размер потока : 459 Мбайт (12%)
Заголовок : Original
Язык : English
Default : Нет
Forced : Нет
Меню
00:00:00.000 : en:00:00:00.000
00:06:46.948 : en:00:06:46.948
00:11:18.261 : en:00:11:18.261
00:19:39.136 : en:00:19:39.136
00:26:49.316 : en:00:26:49.316
00:33:54.491 : en:00:33:54.491
00:40:11.868 : en:00:40:11.868
00:47:51.702 : en:00:47:51.702
00:56:54.745 : en:00:56:54.745
01:04:06.134 : en:01:04:06.134
01:14:58.744 : en:01:14:58.744
01:32:43.099 : en:01:32:43.099


_________________
Проголосуй за трекер Открытый торрент трекер - RUS-MEDIA.ORG

Проголосуй Открытый торрент трекер - RUS-MEDIA.ORG


Книжный торрент трекер



Вернуться к началу
 Профиль Отправить личное сообщение  
 
   Похожие торренты   Автор   Торрент   Размер 
В этой теме нет новых непрочитанных сообщений. Игры / Games [триллер, 1967] HDRip, Mvo

salma3

0 | 1

1.45 ГБ

В этой теме нет новых непрочитанных сообщений. Азартные игры / Reindeer Games [Боевик, триллер, драма, 2000] BDRip 720p, Dub [Director's Cut]

salma3

0 | 4

5.76 ГБ

В этой теме нет новых непрочитанных сообщений. Азартные игры / Reindeer Games [Боевик, триллер, драма, 2000] BDRip 720p, Avo [Director's Cut]

salma3

0 | 0

6.48 ГБ

В этой теме нет новых непрочитанных сообщений. Игры патриотов / Patriot Games [боевик, триллер, 1992] BDRip, Dub

salma3

0 | 2

1.46 ГБ

В этой теме нет новых непрочитанных сообщений. Игры юрского периода / The Jurassic Games [Фантастика, триллер, 2018] WEBRip 720p, Dvo

salma3

390 | 143

2.02 ГБ

В этой теме нет новых непрочитанных сообщений. Игры патриотов / Patriot Games [боевик, триллер, драма, 1992] BDRip 1080p, Mvo

salma3

27 | 6

7.76 ГБ

В этой теме нет новых непрочитанных сообщений. Азартные игры / Reindeer Games [Боевик, триллер, драма, 2000] BDRip-AVC, Dub [Director's Cut]

salma3

0 | 0

2.41 ГБ


Начать новую тему Ответить на тему  [ 1 сообщение ] 




Для Мосгорсуда, Роскомнадзора и рекламодателей:: mosgorsud-torrent[собачка]yandex.ru
cron