Торрент файл
скачать торрент магнет ссылка Добавлен: 08 май 2018, 11:38
Размер: 6.36 ГБ
Сидеров: 1555
Личеров: 456
Статус: (salma3)
Автор

СообщениеДобавлено: 08 май 2018, 11:38 

Не в сети
Супермодератор
Аватара пользователя
Дата регистрации:
15 фев 2012, 16:44
Возраст: 29
Спасибо: 7320 / 2147
Сообщения: 73192
Год выхода: 2018
Жанр: Tриллер, криминал
Режиссер: Роберт Мореско

В ролях: Карл Урбан, София Вергара, Энди Гарсиа, Винсент Спано, Джон Финн, Грейс Байерс, Тоня Корнелисс, Патрик Бреннан, Мэттью Рейнольдс, Шарлотта Брэдли

О фильме:
Дэнни Галахеру пришлось пережить тяжёлые, незаслуженные испытания, постигшие на непростом жизненном пути. Бывшего полицейского обвинили в совершении бесчеловечного убийства, к которому никакого отношения он не имел. Ему пришлось отсидеть в тюремной камере длительное время за страшное преступление, совершённое другим человеком. Сейчас он вышел на долгожданную свободу и самостоятельно намеревается разобраться в давнем, запутанном деле, чтобы разыскать виновника всех неприятностей и организатора тщательно подстроенной ловушки, чтобы подставить ложного убийцу. Заключённый, освободившийся недавно, за время проведённое в колонии, скрупулезно разработал план жестокого отмщения за нанесённые личные обиды и смерть друга-напарника. Наступило время реализовать задуманные намерения и приступить к решительным действиям...



Страна: Испания, США
Продолжительность: 01:36:31
Перевод: Любительский двухголосый

Файл
Кодек: x.264
Качество: BDRip 1080p
Видео: MPEG-4 AVC, 1920x800, ~8670 Kбит/с, 23.976 кадр/с
Звук:
Аудио #1: Русский ( АС3, 6ch, 384 Кбит/с, 48.0 KHz)Любительский (двухголосый закадровый) HiWay Grope
Аудио #2: Английский ( АС3, 6ch, 384 Кбит/с, 48.0 KHz)
Субтитры: нет
Трейлер
► Перевод: Любительский (двухголосый закадровый) HiWay Grope
► Спасибо dalemake
Источник: Bent.2018.1080p.BluRay.x264.DTS-MT
General
Unique ID : 240898713808826101791079986296661600625 (0xB53B679711A5480DA7294FBDF485E971)
Complete name : Bent.2018.BDRip.1080p.mkv
Format : Matroska
Format version : Version 4 / Version 2
File size : 6.36 GiB
Duration : 1 h 36 min
Overall bit rate : 9 440 kb/s
Encoded date : UTC 2018-05-07 14:52:45
Writing application : mkvmerge v7.1.0 ('Good Love') 64bit built on Jul 27 2014 13:06:55
Writing library : libebml v1.3.0 + libmatroska v1.4.1
Video
ID : 1
Format : AVC
Format/Info : Advanced Video Codec
Format profile : High@L4.1
Format settings : CABAC / 4 Ref Frames
Format settings, CABAC : Yes
Format settings, ReFrames : 4 frames
Codec ID : V_MPEG4/ISO/AVC
Duration : 1 h 36 min
Bit rate : 8 670 kb/s
Width : 1 920 pixels
Height : 800 pixels
Display aspect ratio : 2.40:1
Frame rate mode : Constant
Frame rate : 23.976 (24000/1001) FPS
Color space : YUV
Chroma subsampling : 4:2:0
Bit depth : 8 bits
Scan type : Progressive
Bits/(Pixel*Frame) : 0.235
Stream size : 5.85 GiB (92%)
Writing library : x264 core 155 r2867+82 a249126 t_mod_Custom_2 [8-bit@all X86_64]
Encoding settings : cabac=1 / ref=4 / deblock=1:-3:-3 / analyse=0x3:0x113 / me=umh / subme=10 / psy=1 / fade_compensate=0.00 / psy_rd=1.00:0.05 / mixed_ref=1 / me_range=48 / chroma_me=1 / trellis=2 / 8x8dct=1 / cqm=0 / deadzone=21,11 / fast_pskip=0 / chroma_qp_offset=-2 / threads=12 / lookahead_threads=2 / sliced_threads=0 / nr=0 / decimate=1 / interlaced=0 / bluray_compat=0 / constrained_intra=0 / fgo=0 / bframes=8 / b_pyramid=2 / b_adapt=2 / b_bias=0 / direct=3 / weightb=1 / open_gop=0 / weightp=2 / keyint=250 / keyint_min=23 / scenecut=40 / intra_refresh=0 / rc_lookahead=40 / rc=crf / mbtree=0 / crf=17.0000 / qcomp=0.60 / qpmin=0:0:0 / qpmax=69:69:69 / qpstep=4 / vbv_maxrate=50000 / vbv_bufsize=45000 / crf_max=0.0 / nal_hrd=none / filler=0 / ip_ratio=1.40 / pb_ratio=1.30 / aq=3:0.90 / aq-sensitivity=10.00 / aq-factor=1.00:1.00:1.00 / aq2=0 / aq3=0
Language : English
Default : Yes
Forced : No
Color range : Limited
Matrix coefficients : BT.709
Audio #1
ID : 2
Format : AC-3
Format/Info : Audio Coding 3
Codec ID : A_AC3
Duration : 1 h 36 min
Bit rate mode : Constant
Bit rate : 384 kb/s
Channel(s) : 6 channels
Channel positions : Front: L C R, Side: L R, LFE
Sampling rate : 48.0 kHz
Frame rate : 31.250 FPS (1536 SPF)
Bit depth : 16 bits
Compression mode : Lossy
Stream size : 265 MiB (4%)
Language : Russian
Service kind : Complete Main
Default : Yes
Forced : No
Audio #2
ID : 3
Format : AC-3
Format/Info : Audio Coding 3
Codec ID : A_AC3
Duration : 1 h 36 min
Bit rate mode : Constant
Bit rate : 384 kb/s
Channel(s) : 6 channels
Channel positions : Front: L C R, Side: L R, LFE
Sampling rate : 48.0 kHz
Frame rate : 31.250 FPS (1536 SPF)
Bit depth : 16 bits
Compression mode : Lossy
Stream size : 265 MiB (4%)
Language : English
Service kind : Complete Main
Default : No
Forced : No


_________________
Проголосуй за трекер Открытый торрент трекер - RUS-MEDIA.ORG

Проголосуй Открытый торрент трекер - RUS-MEDIA.ORG


Вернуться к началу
 Профиль Отправить личное сообщение  
 
   Похожие торренты   Автор   Торрент   Размер 
В этой теме нет новых непрочитанных сообщений. Склонность / Bent [Триллер, криминал, 2018] WEB-DL 1080p, Dvo

salma3

32 | 11

3.58 ГБ

В этой теме нет новых непрочитанных сообщений. Склонность / Bent [триллер, криминал, 2018] WEBDLRip, Mvo

salma3

686 | 114

1.37 ГБ

В этой теме нет новых непрочитанных сообщений. Склонность / Bent [триллер, криминал, 2018] WEBRip 720p, Dvo

salma3

0 | 0

2.91 ГБ

В этой теме нет новых непрочитанных сообщений. Тебя никогда здесь не было / You Were Never Really Here [Tриллер, драма, детектив, 2017] WEB-DL 1080p, Avo

salma3

0 | 0

3.35 ГБ

В этой теме нет новых непрочитанных сообщений. [PublicAgent.com / FakeHub.com] Foxy Sanie - Tattooed minx bent over and fucked (17.07.2018) [Work Fantasies, Public Sex, Amateur, Outdoors, Sex, Cum On Ass, Doggystyle - Standing, Cowgirl - POV, Doggystyle - POV, Blowjob, Blowjob - POV]

salma3

0 | 0

335.25 МБ

В этой теме нет новых непрочитанных сообщений. Суперполицейские 2 / Super Troopers 2 [Комедия, криминал, детектив, 2018] BDRip 1080p, Mvo

salma3

7 | 6

11.11 ГБ

В этой теме нет новых непрочитанных сообщений. Такси 5 / Taxi 5 [Боевик, комедия, криминал, 2018] BDRip 1080p, Dub [iTunes]

salma3

0 | 0

7.37 ГБ


Начать новую тему Ответить на тему  [ 1 сообщение ] 




Для Мосгорсуда, Роскомнадзора и рекламодателей:: mosgorsud-torrent[собачка]yandex.ru
cron