COVID-19 - Последняя информация о коронавирусе на сайте Минздрава




Торрент файл
скачать торрент магнет ссылка Добавлен: 08 май 2018, 11:11
Размер: 4.35 ГБ
Сидеров: 16
Личеров: 2
Статус: (salma3)
Автор

СообщениеДобавлено: 08 май 2018, 11:11 

Не в сети
Супермодератор
Аватара пользователя
Дата регистрации:
15 фев 2012, 16:44
Возраст: 30
Спасибо: 8217 / 2148
Сообщения: 95897
Год выхода: 1975
Жанр: фэнтези, приключения
Режиссер: Кевин Коннор

В ролях: Даг МакКлёр, Джон МакИнери, Сьюзен Пенхалигон, Кит Баррон, Энтони Эйнли, Годфри Джеймс, Бобби Парр, Деклан Малхолланд, Колин Фаррелл, Бен Ховард

О фильме:
В конце Второй мировой войны находят рукопись, содержащую удивительный рассказ. В 1916 году моряки британского грузового корабля, захваченного немецкой подводной лодкой, были отнесены течением к острову Капрона, где обнаружили мир динозавров, вулканов и первобытных людей. В рукописи описаны все приключения, которые им пришлось пережить…



Страна: Великобритания, США
Продолжительность: 01:31:21
Перевод: Авторский одноголосый, закадровый (Юрий Живов)

Файл
Качество: BDRip 720p
Видео: High@L4.1, ~6050 Кбит/с, 1280x690, 23.976 Кадр/с
Аудио 1: AC3, 2 ch, 384 kbps - Русский
Аудио 2: AC3, 2 ch, 384 kbps - Английский, оригинал
Субтитры: английские (полные, SDH)

General
Unique ID : 62061338698067595294027643939981135502 (0x2EB0943D3180797AF2958A07347C8E8E)
Complete name : F:FILMSЗемля, забытая Временем_1974_BLU-RAY_720p_[-=DoMiNo=-].mkv
Format : Matroska
Format version : Version 4 / Version 2
File size : 4.35 GiB
Duration : 1 h 31 min
Overall bit rate : 6 824 kb/s
Movie name : Земля, забытая Временем
Deion : В конце Второй мировой войны находят рукопись, содержащую удивительный рассказ. В 1916 году моряки британского грузового корабля, захваченного немецкой подводной лодкой, были отнесены течением к острову Капрона, где обнаружили мир динозавров, вулканов и первобытных людей. В рукописи описаны все приключения, которые им пришлось пережить…
Writing application : XviD4PSP 7.0.450 DAILY
Writing library : Lavf57.71.100
ErrorDetectionType : Per level 1
Attachments : poster.jpg
ACTORS : Doug McClure, John McEnery, Susan Penhaligon, Keith Barron, Anthony Ainley, Godfrey James, Bobby Parr, Declan Mulholland, Colin Farrell, Ben Howard, Roy Holder, Andrew McCulloch, Ron Pember, Grahame Mallard, Andrew Lodge, Stanley McGeagh, Steve James, Brian Hall, Peter Sproule
COUNTRY : United Kingdom, United States
DATE : 1975-08-13
DIRECTOR : Kevin Connor
GENRE : приключения, фэнтези, фантастика
HD_VIDEO : 1
ITUNEXTC : mpaa|PG|200|
Language : und
MEDIA_TYPE : 9
ORIGINAL_TITLE : The Land That Time Forgot
PRODUCER : John Dark, Max Rosenberg, Milton Subotsky
PUBLISHER : Land Associates, Amicus Productions, Edgar Rice Burroughs Inc., British Lion Films
RATING : 5.60
WRITER : James Cawthorn, Michael Moorcock
Video
ID : 1
Format : AVC
Format/Info : Advanced Video Codec
Format profile : High@L4.1
Format settings : CABAC / 9 Ref Frames
Format settings, CABAC : Yes
Format settings, ReFrames : 9 frames
Codec ID : V_MPEG4/ISO/AVC
Duration : 1 h 31 min
Bit rate : 6 050 kb/s
Width : 1 280 pixels
Height : 690 pixels
Display aspect ratio : 1.85:1
Frame rate mode : Constant
Frame rate : 23.976 (24000/1001) FPS
Color space : YUV
Chroma subsampling : 4:2:0
Bit depth : 8 bits
Scan type : Progressive
Bits/(Pixel*Frame) : 0.286
Stream size : 3.78 GiB (87%)
Title : BLU-RAY_720p_RIP_BY_-=DoMiNo=-
Writing library : x264 core 155 r2901M 7d0ff22
Encoding settings : cabac=1 / ref=9 / deblock=1:-1:-1 / analyse=0x3:0x133 / me=umh / subme=11 / psy=1 / psy_rd=1.00:0.05 / mixed_ref=1 / me_range=48 / chroma_me=1 / trellis=2 / 8x8dct=1 / cqm=0 / deadzone=21,11 / fast_pskip=0 / chroma_qp_offset=-3 / threads=6 / lookahead_threads=1 / sliced_threads=0 / nr=0 / decimate=1 / interlaced=0 / bluray_compat=0 / constrained_intra=0 / bframes=12 / b_pyramid=2 / b_adapt=2 / b_bias=0 / direct=3 / weightb=1 / open_gop=0 / weightp=2 / keyint=240 / keyint_min=24 / scenecut=40 / intra_refresh=0 / rc_lookahead=80 / rc=2pass / mbtree=0 / bitrate=6050 / ratetol=1.0 / qcomp=0.70 / qpmin=0 / qpmax=69 / qpstep=4 / cplxblur=20.0 / qblur=0.5 / vbv_maxrate=50000 / vbv_bufsize=50000 / nal_hrd=none / filler=0 / ip_ratio=1.40 / pb_ratio=1.30 / aq=1:0.80
Language : English
Default : Yes
Forced : No
Color range : Limited
Color primaries : BT.709
Transfer characteristics : BT.709
Matrix coefficients : BT.709
Audio #1
ID : 2
Format : AC-3
Format/Info : Audio Coding 3
Codec ID : A_AC3
Duration : 1 h 31 min
Bit rate mode : Constant
Bit rate : 384 kb/s
Channel(s) : 2 channels
Channel positions : Front: L R
Sampling rate : 48.0 kHz
Frame rate : 31.250 FPS (1536 SPF)
Bit depth : 16 bits
Compression mode : Lossy
Stream size : 251 MiB (6%)
Title : AC3 2.0 @ 384 kbps - AVO, Ю. Живов
Language : Russian
Service kind : Complete Main
Default : Yes
Forced : No
Audio #2
ID : 3
Format : AC-3
Format/Info : Audio Coding 3
Codec ID : A_AC3
Duration : 1 h 31 min
Bit rate mode : Constant
Bit rate : 384 kb/s
Channel(s) : 2 channels
Channel positions : Front: L R
Sampling rate : 48.0 kHz
Frame rate : 31.250 FPS (1536 SPF)
Bit depth : 16 bits
Compression mode : Lossy
Stream size : 251 MiB (6%)
Title : AC3 2.0 @ 384 kbps - Original ENG
Language : English
Service kind : Complete Main
Default : No
Forced : No
Text #1
ID : 4
Format : UTF-8
Codec ID : S_TEXT/UTF8
Codec ID/Info : UTF-8 Plain Text
Title : ENG
Language : English
Default : Yes
Forced : No
Text #2
ID : 5
Format : UTF-8
Codec ID : S_TEXT/UTF8
Codec ID/Info : UTF-8 Plain Text
Title : ENG_SDH
Language : English
Default : No
Forced : No
Menu
00:00:00.000 : :Глава 1
00:04:59.882 : :Глава 2
00:15:18.667 : :Глава 3
00:18:49.044 : :Глава 4
00:22:50.786 : :Глава 5
00:27:51.586 : :Глава 6
00:31:38.855 : :Глава 7
00:39:31.535 : :Глава 8
00:43:50.044 : :Глава 9
00:53:21.364 : :Глава 10
00:57:03.336 : :Глава 11
01:03:14.040 : :Глава 12
01:10:32.645 : :Глава 13
01:18:31.665 : :Глава 14
01:22:42.540 : :Глава 15
01:30:31.134 : :Глава 16


_________________
Проголосуй за трекер Открытый торрент трекер - RUS-MEDIA.ORG

Проголосуй Открытый торрент трекер - RUS-MEDIA.ORG


Скачать книги и аудио книги через торрент


Вернуться к началу
 Профиль Отправить личное сообщение  
 
   Похожие торренты   Автор   Торрент   Размер 
В этой теме нет новых непрочитанных сообщений. Капрона-парк / The People That Time Forgot [фэнтези, приключения, 1977] BDRip, Dvo

salma3

2 | 0

1.45 ГБ

В этой теме нет новых непрочитанных сообщений. Земля до начала времен / The Land Before Time [Мультфильм, приключения, семейный, 1988] BDRip-HEVC 1080p, Dub

salma3

0 | 0

7.69 ГБ

В этой теме нет новых непрочитанных сообщений. Земля Чато / Chato's land [Вестерн, приключения, драма, 1972] BDRip 720p, Mvo

salma3

0 | 0

7.16 ГБ

В этой теме нет новых непрочитанных сообщений. Моя чистая земля / My Pure Land [триллер, драма, 2017] HDRip-AVC, Avo

salma3

119 | 14

1.49 ГБ

В этой теме нет новых непрочитанных сообщений. Земля гангстеров / Gangster Land [Драма, криминал, 2017] BDRip 1080p, Mvo

salma3

2 | 2

8.73 ГБ

В этой теме нет новых непрочитанных сообщений. Моя чистая земля / My Pure Land [Драма, триллер, 2017] WEBRip 720p, Dvo [LakeFilms]

salma3

0 | 0

1.47 ГБ

В этой теме нет новых непрочитанных сообщений. Излом времени / A Wrinkle in Time [Фантастика, фэнтези, приключения, 2018] BDRip 720p, Dub [iTunes]

salma3

308 | 178

4.03 ГБ


Начать новую тему Ответить на тему  [ 1 сообщение ] 




Для Мосгорсуда, Роскомнадзора и рекламодателей:: rstracker[собака]yandex.ru
cron