Торрент файл
скачать торрент магнет ссылка Добавлен: 07 май 2018, 16:16
Размер: 12.72 ГБ
Сидеров: 3
Личеров: 18
Статус: (salma3)
Автор

СообщениеДобавлено: 07 май 2018, 16:16 

Не в сети
Супермодератор
Аватара пользователя
Дата регистрации:
15 фев 2012, 16:44
Возраст: 28
Спасибо: 7199 / 2147
Сообщения: 64840
Год выхода: 1985
Жанр: Ужасы, фантастика, боевик
Режиссер: Тоуб Хупер

В ролях: Стив Рейлсбэк, Питер Фёрт, Фрэнк Финлей, Матильда Мэй, Патрик Стюарт, Майкл Гозард, Николас Болл, Обри Моррис, Нэнси Пол, Джон Хэллам

О фильме:
Космическая экспедиция исследует комету Галлея и натыкается на новую форму разумной жизни — нечто вроде космических вампиров, вместо крови черпающих энергию из своих жертв. Забрав этих чудовищ в образах очень красивой обнаженной женщины и двух мужчин на борт, космонавты совершили страшную ошибку. Мало того, что все они, кроме Рэйлсбэка погибли, вампиры проникли на Землю, где начали массовую заготовку жизненной силы, забирая её у людей, превращавшихся в нечто вроде зомби... Всё это напоминает конец света. Экранизация романа «Космические вампиры» Колина Уилсона (1976).



Страна: Великобритания, США
Продолжительность: 01:56:13
Перевод: Профессиональный многоголосый, профессиональный двухголосый, авторский

Файл
Кодек: x.264
Качество: BDRip 1080p
Видео: MPEG-4 AVC, 1920x816, ~13.4 Mбит/с, 23.976 кадр/с
Звук:
Аудио #1: Русский ( АС3, 2ch, 192 Кбит/с, 48.0 KHz) Профессиональный (многоголосый, закадровый) Спб, 5 канал
Аудио #2: Русский ( АС3, 2ch, 192 Кбит/с, 48.0 KHz) Профессиональный (двухголосый, закадровый) TV1000 / SDI Media
Аудио #3: Русский ( АС3, 2ch, 192 Кбит/с, 48.0 KHz) Профессиональный (двухголосый, закадровый) НТВ+
Аудио #4: Русский ( АС3, 6ch, 448 Кбит/с, 48.0 KHz) Авторский (одноголосый, закадровый) Андрей Гаврилов
Аудио #5: Русский ( АС3, 6ch, 384 Кбит/с, 48.0 KHz) Авторский (одноголосый, закадровый) Сергей Визгунов
Аудио #6: Украинский ( АС3, 6ch, 448 Кбит/с, 48.0 KHz) Профессиональный (двухголосый, закадровый) 1+1
Аудио #7: Английский ( АС3, 6ch, 448 Кбит/с, 48.0 KHz)
Субтитры: английские

***Сохранены оригинальные главы как на Blu-ray.
***Релиз - msltel
Источник:
General
Unique ID : 213766897594771393009319100614298368654 (0xA0D201C57C8356D685BBFC698400FA8E)
Complete name : Lifeforce.1985.BDRip.1080p.mkv
Format : Matroska
Format version : Version 4 / Version 2
File size : 12.7 GiB
Duration : 1 h 56 min
Overall bit rate : 15.7 Mb/s
Movie name : Rip by msltel
Encoded date : UTC 2018-05-05 00:01:58
Writing application : mkvmerge v7.1.0 ('Good Love') 64bit built on Jul 27 2014 13:06:55
Writing library : libebml v1.3.0 + libmatroska v1.4.1
Video
ID : 1
Format : AVC
Format/Info : Advanced Video Codec
Format profile : High@L4.1
Format settings : CABAC / 4 Ref Frames
Format settings, CABAC : Yes
Format settings, ReFrames : 4 frames
Codec ID : V_MPEG4/ISO/AVC
Duration : 1 h 56 min
Bit rate : 13.4 Mb/s
Width : 1 920 pixels
Height : 816 pixels
Display aspect ratio : 2.35:1
Frame rate mode : Constant
Frame rate : 23.976 (24000/1001) FPS
Color space : YUV
Chroma subsampling : 4:2:0
Bit depth : 8 bits
Scan type : Progressive
Bits/(Pixel*Frame) : 0.356
Stream size : 10.8 GiB (85%)
Writing library : x264 core 146 r2538 121396c
Encoding settings : cabac=1 / ref=4 / deblock=1:-3:-2 / analyse=0x3:0x113 / me=umh / subme=11 / psy=1 / psy_rd=1.00:0.15 / mixed_ref=1 / me_range=32 / chroma_me=1 / trellis=2 / 8x8dct=1 / cqm=0 / deadzone=21,11 / fast_pskip=0 / chroma_qp_offset=-3 / threads=6 / lookahead_threads=1 / sliced_threads=0 / nr=0 / decimate=1 / interlaced=0 / bluray_compat=0 / constrained_intra=0 / bframes=11 / b_pyramid=2 / b_adapt=2 / b_bias=0 / direct=1 / weightb=1 / open_gop=0 / weightp=2 / keyint=230 / keyint_min=23 / scenecut=40 / intra_refresh=0 / rc_lookahead=40 / rc=crf / mbtree=0 / crf=19.6 / qcomp=0.60 / qpmin=0 / qpmax=69 / qpstep=4 / vbv_maxrate=62500 / vbv_bufsize=78125 / crf_max=0.0 / nal_hrd=none / filler=0 / ip_ratio=1.40 / pb_ratio=1.30 / aq=1:1.00
Language : English
Default : Yes
Forced : No
Audio #1
ID : 2
Format : AC-3
Format/Info : Audio Coding 3
Codec ID : A_AC3
Duration : 1 h 56 min
Bit rate mode : Constant
Bit rate : 192 kb/s
Channel(s) : 2 channels
Channel positions : Front: L R
Sampling rate : 48.0 kHz
Frame rate : 31.250 FPS (1536 SPF)
Bit depth : 16 bits
Compression mode : Lossy
Stream size : 160 MiB (1%)
Title : MVO (Спб, 5 канал)
Language : Russian
Service kind : Complete Main
Default : Yes
Forced : No
Audio #2
ID : 3
Format : AC-3
Format/Info : Audio Coding 3
Codec ID : A_AC3
Duration : 1 h 56 min
Bit rate mode : Constant
Bit rate : 192 kb/s
Channel(s) : 2 channels
Channel positions : Front: L R
Sampling rate : 48.0 kHz
Frame rate : 31.250 FPS (1536 SPF)
Bit depth : 16 bits
Compression mode : Lossy
Stream size : 160 MiB (1%)
Title : MVO (TB1000)
Language : Russian
Service kind : Complete Main
Default : No
Forced : No
Audio #3
ID : 4
Format : AC-3
Format/Info : Audio Coding 3
Codec ID : A_AC3
Duration : 1 h 56 min
Bit rate mode : Constant
Bit rate : 192 kb/s
Channel(s) : 2 channels
Channel positions : Front: L R
Sampling rate : 48.0 kHz
Frame rate : 31.250 FPS (1536 SPF)
Bit depth : 16 bits
Compression mode : Lossy
Stream size : 160 MiB (1%)
Title : DVO (НТВ+)
Language : Russian
Service kind : Complete Main
Default : No
Forced : No
Audio #4
ID : 5
Format : AC-3
Format/Info : Audio Coding 3
Codec ID : A_AC3
Duration : 1 h 56 min
Bit rate mode : Constant
Bit rate : 448 kb/s
Channel(s) : 6 channels
Channel positions : Front: L C R, Side: L R, LFE
Sampling rate : 48.0 kHz
Frame rate : 31.250 FPS (1536 SPF)
Bit depth : 16 bits
Compression mode : Lossy
Stream size : 373 MiB (3%)
Title : AVO (Андрей Гаврилов)
Language : Russian
Service kind : Complete Main
Default : No
Forced : No
Audio #5
ID : 6
Format : AC-3
Format/Info : Audio Coding 3
Codec ID : A_AC3
Duration : 1 h 56 min
Bit rate mode : Constant
Bit rate : 384 kb/s
Channel(s) : 6 channels
Channel positions : Front: L C R, Side: L R, LFE
Sampling rate : 48.0 kHz
Frame rate : 31.250 FPS (1536 SPF)
Bit depth : 16 bits
Compression mode : Lossy
Stream size : 319 MiB (2%)
Title : AVO (Сергей Визгунов)
Language : Russian
Service kind : Complete Main
Default : No
Forced : No
Audio #6
ID : 7
Format : AC-3
Format/Info : Audio Coding 3
Codec ID : A_AC3
Duration : 1 h 56 min
Bit rate mode : Constant
Bit rate : 448 kb/s
Channel(s) : 6 channels
Channel positions : Front: L C R, Side: L R, LFE
Sampling rate : 48.0 kHz
Frame rate : 31.250 FPS (1536 SPF)
Bit depth : 16 bits
Compression mode : Lossy
Stream size : 373 MiB (3%)
Language : Ukrainian
Service kind : Complete Main
Default : No
Forced : No
Audio #7
ID : 8
Format : AC-3
Format/Info : Audio Coding 3
Codec ID : A_AC3
Duration : 1 h 56 min
Bit rate mode : Constant
Bit rate : 448 kb/s
Channel(s) : 6 channels
Channel positions : Front: L C R, Side: L R, LFE
Sampling rate : 48.0 kHz
Frame rate : 31.250 FPS (1536 SPF)
Bit depth : 16 bits
Compression mode : Lossy
Stream size : 373 MiB (3%)
Language : English
Service kind : Complete Main
Default : No
Forced : No
Text
ID : 9
Format : UTF-8
Codec ID : S_TEXT/UTF8
Codec ID/Info : UTF-8 Plain Text
Duration : 1 h 49 min
Bit rate : 49 b/s
Count of elements : 1357
Stream size : 39.9 KiB (0%)
Title : английские
Language : English
Default : No
Forced : No
Menu
00:00:00.000 : :Chapter 01
00:10:17.617 : :Chapter 02
00:22:15.534 : :Chapter 03
00:27:19.704 : :Chapter 04
00:36:09.500 : :Chapter 05
00:43:11.722 : :Chapter 06
00:59:26.629 : :Chapter 07
01:07:26.642 : :Chapter 08
01:13:11.453 : :Chapter 09
01:21:29.484 : :Chapter 10
01:28:28.970 : :Chapter 11
01:37:08.556 : :Chapter 12


_________________
Проголосуй за трекер Открытый торрент трекер - RUS-MEDIA.ORG

Проголосуй Открытый торрент трекер - RUS-MEDIA.ORG


Вернуться к началу
 Профиль Отправить личное сообщение  
 
   Похожие торренты   Автор   Торрент   Размер 
В этой теме нет новых непрочитанных сообщений. Жизненная сила / Lifeforce [ужасы, фантастика, боевик, 1985] BDRip-AVC, Dvo

salma3

95 | 27

1.46 ГБ

В этой теме нет новых непрочитанных сообщений. Жизненная сила / Lifeforce [ужасы, фантастика, боевик, 1985] BDRip 720p, Mvo

salma3

92 | 35

5.37 ГБ

В этой теме нет новых непрочитанных сообщений. Реаниматор / Re-Animator [ужасы, фантастика, 1985] BDRip 1080p, Dvo [Integral Version]

salma3

0 | 0

10.3 ГБ

В этой теме нет новых непрочитанных сообщений. Сила одиночки / A Force Of One [Боевик, триллер, 1979] BDRip 1080p, Mvo+Avo

salma3

27 | 50

9.79 ГБ

В этой теме нет новых непрочитанных сообщений. Карающая сила / Avenging Force [Боевик, драма, 1986] BDRip 1080p, Mvo

salma3

12 | 18

8.6 ГБ

В этой теме нет новых непрочитанных сообщений. Сила пятерых / Force: Five [Боевик, драма, приключения, 1981] BDRip 1080p, Avo

salma3

86 | 40

7.73 ГБ

В этой теме нет новых непрочитанных сообщений. Реаниматор / Re-Animator [ужасы, фантастика, комедия, 1985] BDRip, Mvo

salma3

8 | 7

1.45 ГБ


Начать новую тему Ответить на тему  [ 1 сообщение ] 




Для Мосгорсуда, Роскомнадзора и рекламодателей:: mosgorsud-torrent[собачка]yandex.ru
cron