Торрент файл
скачать торрент магнет ссылка Добавлен: 03 май 2018, 11:42
Размер: 5.64 ГБ
Сидеров: 0
Личеров: 0
Статус: (salma3)
Автор

СообщениеДобавлено: 03 май 2018, 11:42 

Не в сети
Супермодератор
Аватара пользователя
Дата регистрации:
15 фев 2012, 16:44
Возраст: 29
Спасибо: 7377 / 2147
Сообщения: 75902
Год выпуска: 2003
Жанр: боевик, триллер, криминал
Режиссер: Ф. Гэри Грей

В ролях: Марк Уолберг, Шарлиз Терон, Дональд Сазерленд, Джейсон Стэтхэм, Сет Грин, Мос Деф, Эдвард Нортон, Фаусто Каллегарини, Стефано Петронелли, Фабио Скарпа

Описание:
Джон Бриджер всегда умел спланировать идеальное ограбление. Вместе со своей командой опытных бандитов он провернул не одно дело, но теперь решил уйти на покой. Впереди у Бриджера последнее задание: кража золотых слитков, в которой принимают участие инсайдер Стив, водитель Роб, взрыватель Левое ухо, технарь Лайл и Чарли — верный друг Бриджера и второй «планировщик» в их команде. Ограбление, изящное и быстрое, было разыграно как по нотам, но после его завершения веселье преступников было омрачено предательством…



Страна: США, Франция, Великобритания, Италия
Продолжительность: 01:50:35
Перевод: Профессиональный (полное дублирование)

Формат: BDRip 1080p
Видео: 1280x536p (2.40:1), 23.976 fps, AVC MPEG-4 (H.264), ~4964 kbps, 0.302 bit/pixel
Аудио #1: Русский: 48 kHz, AC3 Dolby Digital, 6 ch, ~384 kbps
Аудио #2: Русский: 48 kHz, AC3 Dolby Digital, 6 ch, ~448 kbps
Аудио #3: Английский: 48 kHz, DTS, 6 ch, ~1510 kbps
Субтитры: Русские, английские

Format : Matroska
File size : 5.64 GiB
Duration : 1h 50mn
Overall bit rate : 7 307 Kbps
Encoded date : UTC 2011-02-15 16:47:11
Writing application : mkvmerge v4.4.0 ('Die Wiederkehr') built on Oct 31 2010 21:52:48
Writing library : libebml v1.0.0 + libmatroska v1.0.0
Video
ID : 1
Format : AVC
Format/Info : Advanced Video Codec
Format profile :
Format settings, CABAC : Yes
Format settings, ReFrames : 12 frames
Codec ID : V_MPEG4/ISO/AVC
Duration : 1h 50mn
Bit rate : 4 964 Kbps
Width : 1 280 pixels
Height : 536 pixels
Display aspect ratio : 2.35:1
Frame rate : 23.976 fps
Color space : YUV
Chroma subsampling : 4:2:0
Bit depth : 8 bits
Scan type : Progressive
Bits/(Pixel*Frame) : 0.302
Stream size : 3.72 GiB (66%)
Title : The.Italian.Job.2003.Bluray.JAP.720p.x264-CHD
Writing library : x264 core 102 r1666 d058f37
Encoding settings : cabac=1 / ref=12 / deblock=1:-3:-3 / analyse=0x3:0x113 / me=umh / subme=10 / psy=1 / psy_rd=1.05:0.10 / mixed_ref=1 / me_range=32 / chroma_me=1 / trellis=2 / 8x8dct=1 / cqm=2 / deadzone=21,11 / fast_pskip=0 / chroma_qp_offset=-2 / threads=6 / sliced_threads=0 / nr=0 / decimate=1 / interlaced=0 / constrained_intra=0 / bframes=6 / b_pyramid=2 / b_adapt=2 / b_bias=0 / direct=3 / weightb=1 / open_gop=0 / weightp=2 / keyint=250 / keyint_min=25 / scenecut=40 / intra_refresh=0 / rc_lookahead=40 / rc=2pass / mbtree=1 / bitrate=4964 / ratetol=1.0 / qcomp=0.60 / qpmin=10 / qpmax=51 / qpstep=4 / cplxblur=20.0 / qblur=0.5 / vbv_maxrate=50000 / vbv_bufsize=50000 / ip_ratio=1.40 / aq=1:0.80 / nal_hrd=none
Language : English
Audio #1
ID : 2
Format : AC-3
Format/Info : Audio Coding 3
Mode extension : CM (complete main)
Codec ID : A_AC3
Duration : 1h 50mn
Bit rate mode : Constant
Bit rate : 384 Kbps
Channel(s) : 6 channels
Channel positions : Front: L C R, Side: L R, LFE
Sampling rate : 48.0 KHz
Bit depth : 16 bits
Stream size : 304 MiB (5%)
Title : dub: AC3 @ 384 kbps
Language : Russian
Audio #2
ID : 3
Format : AC-3
Format/Info : Audio Coding 3
Mode extension : CM (complete main)
Codec ID : A_AC3
Duration : 1h 50mn
Bit rate mode : Constant
Bit rate : 448 Kbps
Channel(s) : 6 channels
Channel positions : Front: L C R, Side: L R, LFE
Sampling rate : 48.0 KHz
Bit depth : 16 bits
Stream size : 354 MiB (6%)
Title : ntv: AC3 @ 448 kbps
Language : Russian
Audio #3
ID : 4
Format : DTS
Format/Info : Digital Theater Systems
Codec ID : A_DTS
Duration : 1h 50mn
Bit rate mode : Constant
Bit rate : 1 510 Kbps
Channel(s) : 6 channels
Channel positions : Front: L C R, Side: L R, LFE
Sampling rate : 48.0 KHz
Bit depth : 24 bits
Stream size : 1.17 GiB (21%)
Title : eng: DTS @ 1536 kbps
Language : English
Text #1
ID : 5
Format : UTF-8
Codec ID : S_TEXT/UTF8
Codec ID/Info : UTF-8 Plain Text
Title : rus @ srt
Language : Russian
Text #2
ID : 6
Format : UTF-8
Codec ID : S_TEXT/UTF8
Codec ID/Info : UTF-8 Plain Text
Title : eng @ srt
Language : English
Menu
00:00:00.000 : en:Main Titles
00:02:25.619 : en:Venice
00:05:26.424 : en:The Heist
00:11:25.700 : en:Canal Chase
00:16:47.980 : en:The Devil Inside
00:24:00.829 : en:Stella
00:30:03.191 : en:Planning the Job
00:40:29.275 : en:Cable Girl
00:54:57.893 : en:Bring on the Minis
01:01:33.413 : en:Yevhen's Killer
01:08:07.265 : en:Element of Surprise
01:16:49.411 : en:Flying the Coop
01:23:26.683 : en:Gridlock
01:28:35.408 : en:Moment of Truth
01:34:54.120 : en:Helicopter Face-Off
01:40:16.359 : en:Golden





_________________
Проголосуй за трекер Открытый торрент трекер - RUS-MEDIA.ORG

Проголосуй Открытый торрент трекер - RUS-MEDIA.ORG


Вернуться к началу
 Профиль Отправить личное сообщение  
 
   Похожие торренты   Автор   Торрент   Размер 
В этой теме нет новых непрочитанных сообщений. Ограбление по-итальянски / The Italian Job [боевик, триллер, криминал, 2003] BDRip 1080p, Dub

salma3

0 | 0

10.21 ГБ

В этой теме нет новых непрочитанных сообщений. Ограбление по-итальянски / The Italian Job [боевик, триллер, криминал, 2003] BDRip, Dub

salma3

0 | 0

2.18 ГБ

В этой теме нет новых непрочитанных сообщений. Ограбление по-итальянски / The Italian Job [боевик, триллер, криминал, 2003] BDRemux 1080p, Dub

salma3

21 | 17

53.04 ГБ

В этой теме нет новых непрочитанных сообщений. Ограбление по-итальянски / The Italian Job [боевик, триллер, криминал, 2003] WEB-DLRip, Dub

salma3

0 | 0

1.45 ГБ

В этой теме нет новых непрочитанных сообщений. Ограбление по-итальянски / The Italian Job [боевик, триллер, криминал, 2003] WEB-DLRip-AVC. Dub [Open Matte]

salma3

0 | 0

2.18 ГБ

В этой теме нет новых непрочитанных сообщений. Большое скандинавское ограбление / Ограбление / Nokas [боевик, триллер, криминал, биография, 2010] BDRip 1080p, Avo

salma3

129 | 36

7.48 ГБ

В этой теме нет новых непрочитанных сообщений. Ограбление в ураган / The Hurricane Heist [боевик, триллер, 2018] BDRip 1080p, Dub [iTunes]

salma3

319 | 197

9.37 ГБ


Начать новую тему Ответить на тему  [ 1 сообщение ] 




Для Мосгорсуда, Роскомнадзора и рекламодателей:: mosgorsud-torrent[собачка]yandex.ru
cron