Торрент файл
скачать торрент магнет ссылка Добавлен: 30 апр 2018, 21:00
Размер: 6.92 ГБ
Сидеров: 0
Личеров: 0
Статус: (salma3)
Автор

СообщениеДобавлено: 30 апр 2018, 21:00 

В сети
Супермодератор
Аватара пользователя
Дата регистрации:
15 фев 2012, 16:44
Возраст: 29
Спасибо: 7379 / 2147
Сообщения: 76235
Год выхода: 1971
Жанр: комедия
Режиссер: Йен МакНотон

В ролях: Грэм Чепмен, Джон Клиз, Терри Гиллиам, Эрик Айдл, Терри Джонс, Майкл Пэлин, Кэрол Кливлэнд, Конни Бут, Невилл Чемберлен, Уинстон Черчилль

О фильме:
Это первый полнометражный фильм «Монти Пайтон» - творческого содружества британских актеров, сценаристов, режиссеров и художников. В сущности, фильм представляет антологию скетчей, полных черного юмора, которые были впервые показаны в легендарной телевизионной серии «Летающий цирк» на английском телевидении.



Страна: Великобритания
Продолжительность: 01:28:19
Перевод: Профессиональный многоголосый + авторский одноголосый

Файл
Кодек: h.264
Качество: BDRip 1080p
Видео: MPEG4-AVC, 1920x1080, 23.976 fps, 9 990 Kbps
Аудио #1: AC3, 2 ch, 192 Kbps | Профессиональный многоголосый | SomeWax
Аудио #2: AC3, 2 ch, 192 Kbps | Профессиональный многоголосый | DVD Магия
Аудио #3: AC3, 2 ch, 192 Kbps | Aвторский | Василий Горчаков
Аудио #4: AC3, 2 ch, 640 Kbps | Английский
Субтитры: Английские

Format : Matroska
Format version : Version 2
File size : 6.92 GiB
Duration : 1h 28mn
Overall bit rate : 11.2 Mbps
Movie name : And Now for Something Completely Different 1971 BDRip 1080p
Attachment : Yes

Video
ID : 1
Format : AVC
Format/Info : Advanced Video Codec
Format profile : High@L4.1
Format settings, CABAC : Yes
Format settings, ReFrames : 4 frames
Codec ID : V_MPEG4/ISO/AVC
Duration : 1h 28mn
Bit rate : 9 990 Kbps
Width : 1 920 pixels
Height : 1 080 pixels
Display aspect ratio : 16:9
Frame rate mode : Constant
Frame rate : 23.976 fps
Color space : YUV
Chroma subsampling : 4:2:0
Bit depth : 8 bits
Scan type : Progressive
Bits/(Pixel*Frame) : 0.201
Stream size : 6.03 GiB (87%)
Title : And Now for Something Completely Different 1971 BDRip 1080p
Writing library : x264 core 128 r2216 198a7ea
Encoding settings : cabac=1 / ref=4 / deblock=1:0:0 / analyse=0x3:0x113 / me=umh / subme=8 / psy=1 / psy_rd=1.00:0.00 / mixed_ref=1 / me_range=16 / chroma_me=1 / trellis=1 / 8x8dct=1 / cqm=0 / deadzone=21,11 / fast_pskip=1 / chroma_qp_offset=-2 / threads=12 / lookahead_threads=2 / sliced_threads=0 / nr=0 / decimate=1 / interlaced=0 / bluray_compat=0 / constrained_intra=0 / bframes=3 / b_pyramid=2 / b_adapt=2 / b_bias=0 / direct=3 / weightb=1 / open_gop=0 / weightp=2 / keyint=240 / keyint_min=24 / scenecut=40 / intra_refresh=0 / rc_lookahead=50 / rc=2pass / mbtree=1 / bitrate=9990 / ratetol=1.0 / qcomp=0.60 / qpmin=0 / qpmax=69 / qpstep=4 / cplxblur=20.0 / qblur=0.5 / ip_ratio=1.40 / aq=1:1.00
Language : English
Default : Yes
Forced : No

Audio #1
ID : 2
Format : AC-3
Format/Info : Audio Coding 3
Format profile : Dolby Digital
Mode extension : CM (complete main)
Format settings, Endianness : Big
Codec ID : A_AC3
Duration : 1h 28mn
Bit rate mode : Constant
Bit rate : 192 Kbps
Channel(s) : 2 channels
Channel positions : Front: L R
Sampling rate : 48.0 KHz
Bit depth : 16 bits
Compression mode : Lossy
Stream size : 121 MiB (2%)
Title : MVO | SomeWax
Language : Russian
Default : Yes
Forced : Yes

Audio #2
ID : 3
Format : AC-3
Format/Info : Audio Coding 3
Format profile : Dolby Digital
Mode extension : CM (complete main)
Format settings, Endianness : Big
Codec ID : A_AC3
Duration : 1h 28mn
Bit rate mode : Constant
Bit rate : 192 Kbps
Channel(s) : 2 channels
Channel positions : Front: L R
Sampling rate : 48.0 KHz
Bit depth : 16 bits
Compression mode : Lossy
Stream size : 121 MiB (2%)
Title : MVO | DVD Магия
Language : Russian
Default : No
Forced : No

Audio #3
ID : 4
Format : AC-3
Format/Info : Audio Coding 3
Format profile : Dolby Digital
Mode extension : CM (complete main)
Format settings, Endianness : Big
Codec ID : A_AC3
Duration : 1h 28mn
Bit rate mode : Constant
Bit rate : 192 Kbps
Channel(s) : 2 channels
Channel positions : Front: L R
Sampling rate : 48.0 KHz
Bit depth : 16 bits
Compression mode : Lossy
Stream size : 121 MiB (2%)
Title : AVO | Василий Горчаков
Language : Russian
Default : No
Forced : No

Audio #4
ID : 5
Format : AC-3
Format/Info : Audio Coding 3
Mode extension : CM (complete main)
Format settings, Endianness : Big
Codec ID : A_AC3
Duration : 1h 28mn
Bit rate mode : Constant
Bit rate : 640 Kbps
Channel(s) : 2 channels
Channel positions : Front: L R
Sampling rate : 48.0 KHz
Bit depth : 16 bits
Compression mode : Lossy
Stream size : 404 MiB (6%)
Language : English
Default : No
Forced : No

Text
ID : 6
Format : UTF-8
Codec ID : S_TEXT/UTF8
Codec ID/Info : UTF-8 Plain Text
Language : English
Default : No
Forced : No

Menu
00:00:00.000 : en:00:00:00.000
00:02:27.814 : en:00:02:27.814
00:03:23.203 : en:00:03:23.203
00:03:33.630 : en:00:03:33.630
00:05:49.099 : en:00:05:49.099
00:09:00.039 : en:00:09:00.039
00:09:50.215 : en:00:09:50.215
00:10:07.857 : en:00:10:07.857
00:15:15.331 : en:00:15:15.331
00:16:08.176 : en:00:16:08.176
00:17:04.023 : en:00:17:04.023
00:19:33.130 : en:00:19:33.130
00:22:40.651 : en:00:22:40.651
00:23:20.774 : en:00:23:20.774
00:26:50.651 : en:00:26:50.651
00:27:36.238 : en:00:27:36.238
00:29:03.450 : en:00:29:03.450
00:34:31.069 : en:00:34:31.069
00:35:00.765 : en:00:35:00.765
00:35:37.093 : en:00:35:37.093
00:36:00.909 : en:00:36:00.909
00:39:17.480 : en:00:39:17.480
00:40:06.029 : en:00:40:06.029
00:42:03.938 : en:00:42:03.938
00:45:17.340 : en:00:45:17.340
00:46:49.181 : en:00:46:49.181
00:52:11.295 : en:00:52:11.295
00:54:29.683 : en:00:54:29.683
00:55:01.798 : en:00:55:01.798
00:58:54.948 : en:00:58:54.948
01:01:26.725 : en:01:01:26.725
01:06:45.043 : en:01:06:45.043
01:07:02.769 : en:01:07:02.769
01:08:25.685 : en:01:08:25.685


_________________
Проголосуй за трекер Открытый торрент трекер - RUS-MEDIA.ORG

Проголосуй Открытый торрент трекер - RUS-MEDIA.ORG


Вернуться к началу
 Профиль Отправить личное сообщение  
 
   Похожие торренты   Автор   Торрент   Размер 
В этой теме нет новых непрочитанных сообщений. А теперь нечто совсем иное / And Now for Something Completely Different [комедия, 1971] BDRemux 1080p, Mvo

salma3

0 | 0

19.82 ГБ

В этой теме нет новых непрочитанных сообщений. Нечто / The Thing [ужасы, фантастика, триллер, 1982] BDRip 1080p, Mvo+Sub [лицензия]

salma3

175 | 5

4.37 ГБ

В этой теме нет новых непрочитанных сообщений. Мания величия / La folie des grandeurs [Комедия, 1971] BDRip 1080p, Mvo

salma3

0 | 0

12.07 ГБ

В этой теме нет новых непрочитанных сообщений. Док / «Doc» [Вестерн, 1971] BDRip 1080p, Mvo

salma3

23 | 7

12.5 ГБ

В этой теме нет новых непрочитанных сообщений. Нечто / The Thing from Another World [ужасы, фантастика, 1951] BDRip 720p, Dvo

salma3

0 | 0

7.14 ГБ

В этой теме нет новых непрочитанных сообщений. Охота / The Hunting Party [боевик, драма, вестерн, 1971] BDRip 1080p, Mvo

salma3

45 | 30

9.37 ГБ

В этой теме нет новых непрочитанных сообщений. Исчезающая точка / Vanishing Point [Боевик, драма, 1971] BDRip 1080p, Mvo

salma3

0 | 0

7.95 ГБ


Начать новую тему Ответить на тему  [ 1 сообщение ] 




Для Мосгорсуда, Роскомнадзора и рекламодателей:: mosgorsud-torrent[собачка]yandex.ru
cron