Торрент файл
скачать торрент магнет ссылка Добавлен: 26 апр 2018, 11:15
Размер: 7.95 ГБ
Сидеров: 0
Личеров: 1
Статус: (salma3)
Автор

СообщениеДобавлено: 26 апр 2018, 11:15 

Не в сети
Супермодератор
Аватара пользователя
Дата регистрации:
15 фев 2012, 16:44
Возраст: 28
Спасибо: 7207 / 2147
Сообщения: 65589
Год выпуска: 2006
Жанр: фэнтези, драма, криминал
Режиссер: Том Тыквер

В ролях: Бен Уишоу, Дастин Хоффман, Алан Рикман, Рейчел Херд-Вуд, Биргит Минихмайр, Шан Томас, Тимоти Дэвис, Дора Романо, Сара Форестье, Дэвид Колдер

Описание:
Жестокий, никогда не знавший любви, сирота Жан-Батист Гренуй настоящих успехов достиг лишь на одном поприще — среди парфюмеров ему никогда не было равных. По его духам сходит с ума весь высший свет, не подозревая о том, какой страшной ценой будет получен последний, идеальный аромат.



Страна: Германия, Франция, Испания, США
Продолжительность: 02:21:21
Перевод: Профессиональный (полное дублирование)

Формат: BDRip 720p
Видео: 1280x546p (2.35:1), 23.976 fps, AVC MPEG-4 (H.264), ~4661 kbps, 0.278 bit/pixel
Аудио #1: Русский: 48 kHz, DTS, 6 ch, ~755 kbps [Профессиональный (полное дублирование)]
Аудио #2: Русский: 48 kHz, AC3 Dolby Digital, 6 ch, ~448 kbps [Авторский (одноголосый)] Ю.Немахов
Аудио #3: Русский: 48 kHz, AC3 Dolby Digital, 6 ch, ~448 kbps [Авторский (одноголосый)] Ю.Немахов
Аудио #4: Украинский: 48 kHz, AC3 Dolby Digital, 6 ch, ~384 kbps [Профессиональный (полное дублирование)]
Аудио #5: Английский: 48 kHz, AC3 Dolby Digital, 6 ch, ~640 kbps [Оригинал]
Субтитры: Русские, английские

Format : Matroska
Format version : Version 4 / Version 2
File size : 7.95 GiB
Duration : 2 h 27 min
Overall bit rate : 7 720 kb/s
Movie name : Perfume: The Story of a Murderer (2006)
Encoded date : UTC 2016-06-22 15:11:25
Writing application : mkvmerge v5.9.0 ('On The Loose') built on Dec 15 2012 16:39:58
Writing library : libebml v1.3.0 + libmatroska v1.4.0

Video
ID : 1
Format : AVC
Format/Info : Advanced Video Codec
Format profile :
Format settings, CABAC : Yes
Format settings, ReFrames : 9 frames
Codec ID : V_MPEG4/ISO/AVC
Duration : 2 h 27 min
Bit rate : 4 661 kb/s
Width : 1 280 pixels
Height : 546 pixels
Display aspect ratio : 2.35:1
Frame rate mode : Constant
Frame rate : 23.976 FPS
Color space : YUV
Chroma subsampling : 4:2:0
Bit depth : 8 bits
Scan type : Progressive
Bits/(Pixel*Frame) : 0.278
Stream size : 4.64 GiB (58%)
Title : potroks
Writing library : x264 core 146 r2538 121396c
Encoding settings : cabac=1 / ref=9 / deblock=1:-3:-3 / analyse=0x3:0x113 / me=umh / subme=11 / psy=1 / psy_rd=0.96:0.00 / mixed_ref=1 / me_range=48 / chroma_me=1 / trellis=2 / 8x8dct=1 / cqm=0 / deadzone=21,11 / fast_pskip=0 / chroma_qp_offset=-2 / threads=9 / lookahead_threads=2 / sliced_threads=0 / nr=0 / decimate=0 / interlaced=0 / bluray_compat=0 / constrained_intra=0 / bframes=10 / b_pyramid=2 / b_adapt=2 / b_bias=0 / direct=3 / weightb=1 / open_gop=0 / weightp=2 / keyint=240 / keyint_min=23 / scenecut=40 / intra_refresh=0 / rc_lookahead=60 / rc=2pass / mbtree=0 / bitrate=4661 / ratetol=1.0 / qcomp=0.70 / qpmin=0 / qpmax=69 / qpstep=4 / cplxblur=20.0 / qblur=0.5 / vbv_maxrate=14000 / vbv_bufsize=14000 / nal_hrd=none / filler=0 / ip_ratio=1.40 / pb_ratio=1.30 / aq=1:0.90
Language : English
Default : Yes
Forced : No

Audio #1
ID : 2
Format : DTS
Format/Info : Digital Theater Systems
Mode : 16
Format settings, Endianness : Big
Codec ID : A_DTS
Duration : 2 h 27 min
Bit rate mode : Constant
Bit rate : 755 kb/s
Channel(s) : 6 channels
Channel positions : Front: L C R, Side: L R, LFE
Sampling rate : 48.0 kHz
Frame rate : 93.750 FPS (512 spf)
Bit depth : 24 bits
Compression mode : Lossy
Stream size : 796 MiB (10%)
Title : Dub | DTS 5.1 @ 768 kbps - R5
Language : Russian
Default : Yes
Forced : No

Audio #2
ID : 3
Format : AC-3
Format/Info : Audio Coding 3
Mode extension : CM (complete main)
Format settings, Endianness : Big
Codec ID : A_AC3
Duration : 2 h 27 min
Bit rate mode : Constant
Bit rate : 640 kb/s
Channel(s) : 6 channels
Channel positions : Front: L C R, Side: L R, LFE
Sampling rate : 48.0 kHz
Frame rate : 31.250 FPS (1536 spf)
Compression mode : Lossy
Stream size : 675 MiB (8%)
Title : AVO | DD 5.1 @ 640 kbps - Yu.Nemahov
Language : Russian
Default : No
Forced : No

Audio #3
ID : 4
Format : AC-3
Format/Info : Audio Coding 3
Mode extension : CM (complete main)
Format settings, Endianness : Big
Codec ID : A_AC3
Duration : 2 h 27 min
Bit rate mode : Constant
Bit rate : 640 kb/s
Channel(s) : 6 channels
Channel positions : Front: L C R, Side: L R, LFE
Sampling rate : 48.0 kHz
Frame rate : 31.250 FPS (1536 spf)
Compression mode : Lossy
Stream size : 675 MiB (8%)
Title : AVO | DD 5.1 @ 640 kbps - A.Gavrilov
Language : Russian
Default : No
Forced : No

Audio #4
ID : 5
Format : AC-3
Format/Info : Audio Coding 3
Mode extension : CM (complete main)
Format settings, Endianness : Big
Codec ID : A_AC3
Duration : 2 h 27 min
Bit rate mode : Constant
Bit rate : 384 kb/s
Channel(s) : 6 channels
Channel positions : Front: L C R, Side: L R, LFE
Sampling rate : 48.0 kHz
Frame rate : 31.250 FPS (1536 spf)
Compression mode : Lossy
Stream size : 405 MiB (5%)
Title : Dub | DD 5.1 @ 384 kbps - R5
Language : Ukrainian
Default : No
Forced : No

Audio #5
ID : 6
Format : AC-3
Format/Info : Audio Coding 3
Mode extension : CM (complete main)
Format settings, Endianness : Big
Codec ID : A_AC3
Duration : 2 h 27 min
Bit rate mode : Constant
Bit rate : 640 kb/s
Channel(s) : 6 channels
Channel positions : Front: L C R, Side: L R, LFE
Sampling rate : 48.0 kHz
Frame rate : 31.250 FPS (1536 spf)
Compression mode : Lossy
Stream size : 675 MiB (8%)
Title : Original | DD 5.1 @ 640 kbps
Language : English
Default : No
Forced : No

Text #1
ID : 7
Format : UTF-8
Codec ID : S_TEXT/UTF8
Codec ID/Info : UTF-8 Plain Text
Language : Russian
Default : No
Forced : No

Text #2
ID : 8
Format : UTF-8
Codec ID : S_TEXT/UTF8
Codec ID/Info : UTF-8 Plain Text
Language : English
Default : No
Forced : No

Menu
00:00:00.000 : en:(01)00:00:00:000
00:11:01.995 : en:(02)00:11:01:995
00:17:55.992 : en:(03)00:17:55:992
00:27:41.994 : en:(04)00:27:41:994
00:39:17.939 : en:(05)00:39:17:939
00:49:25.920 : en:(06)00:49:25:920
00:59:30.942 : en:(07)00:59:30:942
01:08:52.962 : en:(08)01:08:52:962
01:18:40.925 : en:(09)01:18:40:925
01:26:52.957 : en:(10)01:26:52:957
01:39:06.858 : en:(11)01:39:06:858
01:47:52.925 : en:(12)01:47:52:925
01:56:55.926 : en:(13)01:56:55:926
02:05:15.883 : en:(14)02:05:15:883
02:14:40.906 : en:(15)02:14:40:906
02:17:46.884 : en:(16)02:17:46:884





_________________
Проголосуй за трекер Открытый торрент трекер - RUS-MEDIA.ORG

Проголосуй Открытый торрент трекер - RUS-MEDIA.ORG


Вернуться к началу
 Профиль Отправить личное сообщение  
 
   Похожие торренты   Автор   Торрент   Размер 
В этой теме нет новых непрочитанных сообщений. Парфюмер: История одного убийцы / Perfume: The Story of a Murderer [фэнтези, драма, криминал, 2006] BDRip, Dub

salma3

4 | 2

2.19 ГБ

В этой теме нет новых непрочитанных сообщений. Парфюмер: История одного убийцы / Perfume: The Story of a Murderer [фэнтези, драма, криминал, 2006] BDRip 1080p, Dub

salma3

0 | 0

7.76 ГБ

В этой теме нет новых непрочитанных сообщений. Парфюмер: История одного убийцы / Perfume: The Story of a Murderer [фэнтези, драма, криминал, 2006] DVDRip, Dub [Open Matte]

salma3

0 | 0

1.46 ГБ

В этой теме нет новых непрочитанных сообщений. История призрака / A Ghost Story [фэнтези, драма, мелодрама, 2017] BDRip 720p, Mvo

salma3

222 | 56

2.73 ГБ

В этой теме нет новых непрочитанных сообщений. Полицейская история / Flic Story [триллер, драма, криминал, 1975] BDRip 720p, Mvo+Dvo

salma3

29 | 1

4.63 ГБ

В этой теме нет новых непрочитанных сообщений. Мы вернулись! История динозавра / We're Back! A Dinosaur's Story [мультфильм, фэнтези, приключения, семейный, 1993] BDRip 720p, Mvo

salma3

21 | 10

7.62 ГБ

В этой теме нет новых непрочитанных сообщений. История призрака / A Ghost Story [Драма, мелодрама, фэнтези, 2017] BDRip, Dub [Лицензия ]

salma3

0 | 0

1.46 ГБ


Начать новую тему Ответить на тему  [ 1 сообщение ] 




Для Мосгорсуда, Роскомнадзора и рекламодателей:: mosgorsud-torrent[собачка]yandex.ru
cron