Торрент файл
скачать торрент магнет ссылка Добавлен: 23 апр 2018, 20:58
Размер: 10.21 ГБ
Сидеров: 0
Личеров: 1
Статус: (salma3)
Автор

СообщениеДобавлено: 23 апр 2018, 20:58 

Не в сети
Супермодератор
Аватара пользователя
Дата регистрации:
15 фев 2012, 16:44
Возраст: 29
Спасибо: 8030 / 2147
Сообщения: 90412
Год выпуска: 1997
Жанр: Боевик, мелодрама, комедия
Режиссер: Сэм Уайзман

В ролях: Брендан Фрейзер, Лесли Манн, Томас Хейден Чёрч, Джон Клиз, Ричард Раундтри, Грегг Краттуэлл, Абрахам Бенруби, Холланд Тейлор, Келли Миллер, Джон Беннет Перри

О фильме: Джордж вырос в самом сердце африканских джунглей. Среди горилл. Они научили своего воспитанника прыгать по деревьям... но не показали, как приземляться. Его лучшие друзья - дикие животные превращаются в домашних. Слон - в сторожевую собаку, лев - в ленивого кота. Даже обезьяна с перепугу начала разговаривать. Джордж наслаждается своей привольной жизнью, пока не встречает красавицу Урсулу, которая не только очаровывает его, но и увозит в Сан - Франциско. Большому городу не хватало только... короля джунглей.



Выпущено: США
Продолжительность: 01:31:44
Перевод: Профессиональный многоголосый, профессиональный двухголосый, авторский одноголосый

Файл
Качество: WEB-DL 1080p
Видео: MPEG-4 AVC, ~ 13000 Кбит/с, 1920x1040, 23.976 Кадр/с
Аудио 1: Russian: AC3, 2.0 / 48 kHz, 192 Kbps - MVO, iTunes / СТС
Аудио 2: Russian: AC3, 2.0 / 48 kHz, 192 Kbps - MVO, СТС / ОРТ
Аудио 3: Russian: AC3, 5.1 / 48 kHz, 448 Kbps - MVO, Позитив
Аудио 4: Russian: AC3, 2.0 / 48 kHz, 192 Kbps - MVO, Видеосервис
Аудио 5: Russian: AC3, 5.1 / 48 kHz, 384 Kbps - AVO, н/а читает перевод Сергея Визгунова
Аудио 6: Russian: AC3, 2.0 / 48 kHz, 192 Kbps - AVO, Сергей Визгунов
Аудио 7: Ukrainian: AC3, 2.0 / 48 kHz, 192 Kbps - DVO, 1+1
Аудио 8: Ukrainian: AC3, 2.0 / 48 kHz, 192 Kbps - DVO, КІНО
Аудио 9: English: EAC3, 5.1 / 48 kHz, 640 Kbps - Оригинал, Amazon
Субтитры: Английские

General
Unique ID : 231783306544948585764926901970405733810 (0xAE5FD7504238C2808EA21C2B5DB4B5B2)
Complete name : D: George.Of.The.Jungle.1997.1080p.AMZN.WEB-DL.Rus.Eng.FILMS.CLUB.mkv
Format : Matroska
Format version : Version 4 / Version 2
File size : 10.2 GiB
Duration : 1 h 31 min
Overall bit rate mode : Variable
Overall bit rate : 15.9 Mb/s
Movie name : George Of The Jungle (1997) - ReJliz FILMS CLUB by BenderBEST
Encoded date : UTC 2018-01-07 13:31:00
Writing application : mkvmerge v6.9.1 ('Blue Panther') 32bit built on Apr 18 2014 18:15:44
Writing library : libebml v1.3.0 + libmatroska v1.4.1

Video
ID : 1
Format : AVC
Format/Info : Advanced Video Codec
Format profile : High@L4
Format settings, CABAC : Yes
Format settings, RefFrames : 4 frames
Codec ID : V_MPEG4/ISO/AVC
Duration : 1 h 31 min
Bit rate mode : Variable
Bit rate : 13.0 Mb/s
Maximum bit rate : 15.0 Mb/s
Width : 1 920 pixels
Height : 1 040 pixels
Display aspect ratio : 1.85:1
Frame rate mode : Constant
Frame rate : 23.976 (24000/1001) FPS
Color space : YUV
Chroma subsampling : 4:2:0
Bit depth : 8 bits
Scan type : Progressive
Bits/(Pixel*Frame) : 0.271
Stream size : 8.33 GiB (82%)
Writing library : x264 core 148 r2623 d5b2374
Encoding settings : cabac=1 / ref=4 / deblock=1:-1:-1 / analyse=0x3:0x133 / me=umh / subme=9 / psy=1 / psy_rd=1.00:0.15 / mixed_ref=1 / me_range=24 / chroma_me=1 / trellis=2 / 8x8dct=1 / cqm=0 / deadzone=21,11 / fast_pskip=1 / chroma_qp_offset=-3 / threads=32 / lookahead_threads=5 / sliced_threads=0 / nr=150 / decimate=1 / interlaced=0 / bluray_compat=0 / constrained_intra=0 / bframes=8 / b_pyramid=2 / b_adapt=2 / b_bias=0 / direct=3 / weightb=1 / open_gop=0 / weightp=2 / keyint=120 / keyint_min=61 / scenecut=0 / intra_refresh=0 / rc_lookahead=120 / rc=crf / mbtree=1 / crf=18.0 / qcomp=0.60 / qpmin=0 / qpmax=69 / qpstep=4 / vbv_maxrate=15000 / vbv_bufsize=31250 / crf_max=0.0 / nal_hrd=vbr / filler=0 / ip_ratio=1.40 / aq=3:1.00
Language : English
Default : Yes
Forced : Yes
Color range : Limited
Color primaries : BT.709
Transfer characteristics : BT.709
Matrix coefficients : BT.709

Audio #1
ID : 2
Format : AC-3
Format/Info : Audio Coding 3
Format settings, Endianness : Big
Codec ID : A_AC3
Duration : 1 h 31 min
Bit rate mode : Constant
Bit rate : 192 kb/s
Channel(s) : 2 channels
Channel positions : Front: L R
Sampling rate : 48.0 kHz
Frame rate : 31.250 FPS (1536 SPF)
Bit depth : 16 bits
Compression mode : Lossy
Stream size : 126 MiB (1%)
Title : AC3 2.0 @ 192 kbps - MVO, iTunes / СТС
Language : Russian
Service kind : Complete Main
Default : Yes
Forced : Yes

Audio #2
ID : 3
Format : AC-3
Format/Info : Audio Coding 3
Format settings, Endianness : Big
Codec ID : A_AC3
Duration : 1 h 31 min
Bit rate mode : Constant
Bit rate : 192 kb/s
Channel(s) : 2 channels
Channel positions : Front: L R
Sampling rate : 48.0 kHz
Frame rate : 31.250 FPS (1536 SPF)
Bit depth : 16 bits
Compression mode : Lossy
Stream size : 126 MiB (1%)
Title : AC3 2.0 @ 192 kbps - MVO, СТС / ОРТ
Language : Russian
Service kind : Complete Main
Default : No
Forced : No

Audio #3
ID : 4
Format : AC-3
Format/Info : Audio Coding 3
Format settings, Endianness : Big
Codec ID : A_AC3
Duration : 1 h 31 min
Bit rate mode : Constant
Bit rate : 448 kb/s
Channel(s) : 6 channels
Channel positions : Front: L C R, Side: L R, LFE
Sampling rate : 48.0 kHz
Frame rate : 31.250 FPS (1536 SPF)
Bit depth : 16 bits
Compression mode : Lossy
Stream size : 294 MiB (3%)
Title : AC3 5.1 @ 448 kbps - MVO, Позитив
Language : Russian
Service kind : Complete Main
Default : No
Forced : No

Audio #4
ID : 5
Format : AC-3
Format/Info : Audio Coding 3
Format settings, Endianness : Big
Codec ID : A_AC3
Duration : 1 h 31 min
Bit rate mode : Constant
Bit rate : 192 kb/s
Channel(s) : 2 channels
Channel positions : Front: L R
Sampling rate : 48.0 kHz
Frame rate : 31.250 FPS (1536 SPF)
Bit depth : 16 bits
Compression mode : Lossy
Stream size : 126 MiB (1%)
Title : AC3 2.0 @ 192 kbps - MVO, Видеосервис
Language : Russian
Service kind : Complete Main
Default : No
Forced : No

Audio #5
ID : 6
Format : AC-3
Format/Info : Audio Coding 3
Format settings, Endianness : Big
Codec ID : A_AC3
Duration : 1 h 31 min
Bit rate mode : Constant
Bit rate : 384 kb/s
Channel(s) : 6 channels
Channel positions : Front: L C R, Side: L R, LFE
Sampling rate : 48.0 kHz
Frame rate : 31.250 FPS (1536 SPF)
Bit depth : 16 bits
Compression mode : Lossy
Stream size : 252 MiB (2%)
Title : AC3 5.1 @ 384 kbps - AVO, Неизвестный человек читает перевод Сергея Визгунова
Language : Russian
Service kind : Complete Main
Default : No
Forced : No

Audio #6
ID : 7
Format : AC-3
Format/Info : Audio Coding 3
Format settings, Endianness : Big
Codec ID : A_AC3
Duration : 1 h 31 min
Bit rate mode : Constant
Bit rate : 192 kb/s
Channel(s) : 2 channels
Channel positions : Front: L R
Sampling rate : 48.0 kHz
Frame rate : 31.250 FPS (1536 SPF)
Bit depth : 16 bits
Compression mode : Lossy
Stream size : 126 MiB (1%)
Title : AC3 2.0 @ 192 kbps - AVO, Сергей Визгунов
Language : Russian
Service kind : Complete Main
Default : No
Forced : No

Audio #7
ID : 8
Format : AC-3
Format/Info : Audio Coding 3
Format settings, Endianness : Big
Codec ID : A_AC3
Duration : 1 h 31 min
Bit rate mode : Constant
Bit rate : 192 kb/s
Channel(s) : 2 channels
Channel positions : Front: L R
Sampling rate : 48.0 kHz
Frame rate : 31.250 FPS (1536 SPF)
Bit depth : 16 bits
Compression mode : Lossy
Stream size : 126 MiB (1%)
Title : AC3 2.0 @ 192 kbps - DVO, 1+1
Language : Ukrainian
Service kind : Complete Main
Default : No
Forced : No

Audio #8
ID : 9
Format : AC-3
Format/Info : Audio Coding 3
Format settings, Endianness : Big
Codec ID : A_AC3
Duration : 1 h 31 min
Bit rate mode : Constant
Bit rate : 192 kb/s
Channel(s) : 2 channels
Channel positions : Front: L R
Sampling rate : 48.0 kHz
Frame rate : 31.250 FPS (1536 SPF)
Bit depth : 16 bits
Compression mode : Lossy
Stream size : 126 MiB (1%)
Title : AC3 2.0 @ 192 kbps - DVO, КІНО
Language : Ukrainian
Service kind : Complete Main
Default : No
Forced : No

Audio #9
ID : 10
Format : E-AC-3
Format/Info : Enhanced Audio Coding 3
Format settings, Endianness : Big
Codec ID : A_EAC3
Duration : 1 h 31 min
Bit rate mode : Constant
Bit rate : 640 kb/s
Channel(s) : 6 channels
Channel positions : Front: L C R, Side: L R, LFE
Sampling rate : 48.0 kHz
Frame rate : 187.500 FPS (256 SPF)
Compression mode : Lossy
Stream size : 420 MiB (4%)
Title : EAC3 2.0 @ 640 kbps
Language : English
Service kind : Complete Main
Default : No
Forced : No

Text
ID : 11
Format : UTF-8
Codec ID : S_TEXT/UTF8
Codec ID/Info : UTF-8 Plain Text
Title : Full
Language : English
Default : No
Forced : No


_________________
Проголосуй за трекер Открытый торрент трекер - RUS-MEDIA.ORG

Проголосуй Открытый торрент трекер - RUS-MEDIA.ORG


Вернуться к началу
 Профиль Отправить личное сообщение  
 
   Похожие торренты   Автор   Торрент   Размер 
В этой теме нет новых непрочитанных сообщений. Из джунглей в джунгли / Jungle 2 Jungle [комедия, приключения, семейный, 1997] WEB-DLRip, Mvo

salma3

213 | 30

1.45 ГБ

В этой теме нет новых непрочитанных сообщений. Из джунглей в джунгли / Jungle 2 Jungle [комедия, приключения, семейный, 1997] WEBRip 720p, Mvo+Sub

salma3

52 | 20

4.37 ГБ

В этой теме нет новых непрочитанных сообщений. Джуманджи: Зов джунглей / Jumanji: Welcome to the Jungle [Фэнтези, боевик, комедия, 2017] WEB-DL 1080p, Dub [iTunes]

salma3

272 | 7

4.52 ГБ

В этой теме нет новых непрочитанных сообщений. Джуманджи: Зов джунглей / Jumanji: Welcome to the Jungle [Фэнтези, боевик, комедия, 2017] BDRip 1080p, Dub [Лицензия]

salma3

52 | 1

11.6 ГБ

В этой теме нет новых непрочитанных сообщений. Джуманджи: Зов джунглей / Jumanji: Welcome to the Jungle [фэнтези, боевик, комедия, 2017] WEB-DL 1080p, Dub [Open Matte]

salma3

0 | 0

12.23 ГБ

В этой теме нет новых непрочитанных сообщений. Джуманджи: Зов джунглей / Jumanji: Welcome to the Jungle [Фэнтези, боевик, комедия, 2017] BDRemux 1080p, Dub [Лицензия]

salma3

15 | 2

23.07 ГБ

В этой теме нет новых непрочитанных сообщений. Джуманджи: Зов джунглей / Jumanji: Welcome to the Jungle [Фэнтези, боевик, комедия, 2017] BDRip, Avo [Живов]

salma3

0 | 0

1.46 ГБ


Начать новую тему Ответить на тему  [ 1 сообщение ] 




Для Мосгорсуда, Роскомнадзора и рекламодателей:: mosgorsud-torrent[собачка]yandex.ru
cron