Торрент файл
скачать торрент магнет ссылка Добавлен: 23 апр 2018, 16:55
Размер: 4.6 ГБ
Сидеров: 232
Личеров: 91
Статус: (salma3)
Автор

СообщениеДобавлено: 23 апр 2018, 16:55 

Не в сети
Супермодератор
Аватара пользователя
Дата регистрации:
15 фев 2012, 16:44
Возраст: 29
Спасибо: 7328 / 2147
Сообщения: 73737
Год выпуска: 2017
Жанр: триллер, драма, детектив
Режиссер: Линн Рэмси

В ролях: Хоакин Феникс, Екатерина Самсонова, Алекс Манетт, Джон Доумен, Джудит Анна Робертс, Алессандро Нивола, Данте Перейра-Олсон

Описание:
У сурового Джо непростая судьба. Он никого не боится, лишь вспышки воспоминаний заставляют его вздрагивать. Безжалостный герой-одиночка, идущий напролом ради спасения слабых. Для Нины, юной дочери сенатора, Джо — единственная надежда. И даже самые изощрённые и жестокие силы не должны помешать ему вызволить её из ада, в который она попала...



Страна: Великобритания Франция США
Продолжительность: 01:29:29
Перевод: Любительский (многоголосый, закадровый)[HDrezka]

Формат:BDRip 720p
Видео: 1280x536p (2.40:1), 24 fps, AVC MPEG-4 (H.264), ~5484 kbps, 0.333 bit/pixel
Аудио1: Русский: 48 kHz, AC3 Dolby Digital, 2 ch, ~384 kbps
Аудио2: Английский: 48 kHz, DTS, 6 ch, ~1509 kbps

Format : Matroska
Format version : Version 2
File size : 4.60 GiB
Duration : 1h 29mn
Overall bit rate : 7 355 Kbps
Encoded date : UTC 2018-04-23 03:58:39
Writing application : mkvmerge v7.8.0 ('River Man') 32bit built on Apr 3 2015 12:11:22
Writing library : libebml v1.3.1 + libmatroska v1.4.2

Video
ID : 1
Format : AVC
Format/Info : Advanced Video Codec
Format profile :
Format settings, CABAC : Yes
Format settings, ReFrames : 5 frames
Codec ID : V_MPEG4/ISO/AVC
Duration : 1h 29mn
Bit rate : 5 484 Kbps
Width : 1 280 pixels
Height : 536 pixels
Display aspect ratio : 2.40:1
Frame rate mode : Constant
Frame rate : 24.000 fps
Color space : YUV
Chroma subsampling : 4:2:0
Bit depth : 8 bits
Scan type : Progressive
Bits/(Pixel*Frame) : 0.333
Stream size : 3.32 GiB (72%)
Writing library : x264 core 155 r2901 7d0ff22
Encoding settings : cabac=1 / ref=5 / deblock=1:-3:-3 / analyse=0x3:0x133 / me=umh / subme=9 / psy=1 / psy_rd=1.00:0.00 / mixed_ref=1 / me_range=16 / chroma_me=1 / trellis=2 / 8x8dct=1 / cqm=0 / deadzone=21,11 / fast_pskip=0 / chroma_qp_offset=-2 / threads=17 / lookahead_threads=1 / sliced_threads=0 / nr=0 / decimate=1 / interlaced=0 / bluray_compat=0 / constrained_intra=0 / bframes=3 / b_pyramid=2 / b_adapt=1 / b_bias=0 / direct=3 / weightb=1 / open_gop=0 / weightp=2 / keyint=240 / keyint_min=24 / scenecut=40 / intra_refresh=0 / rc_lookahead=50 / rc=2pass / mbtree=1 / bitrate=5484 / ratetol=1.0 / qcomp=0.60 / qpmin=0 / qpmax=69 / qpstep=4 / cplxblur=20.0 / qblur=0.5 / ip_ratio=1.40 / aq=1:1.00
Language : English
Default : Yes
Forced : No

Audio #1
ID : 2
Format : AC-3
Format/Info : Audio Coding 3
Mode extension : CM (complete main)
Format settings, Endianness : Big
Codec ID : A_AC3
Duration : 1h 29mn
Bit rate mode : Constant
Bit rate : 384 Kbps
Channel(s) : 2 channels
Channel positions : Front: L R
Sampling rate : 48.0 KHz
Compression mode : Lossy
Stream size : 246 MiB (5%)
Language : Russian
Default : Yes
Forced : Yes

Audio #2
ID : 3
Format : DTS
Format/Info : Digital Theater Systems
Mode : 16
Format settings, Endianness : Big
Codec ID : A_DTS
Duration : 1h 29mn
Bit rate mode : Constant
Bit rate : 1 509 Kbps
Channel(s) : 6 channels
Channel positions : Front: L C R, Side: L R, LFE
Sampling rate : 48.0 KHz
Bit depth : 24 bits
Compression mode : Lossy
Stream size : 966 MiB (21%)
Language : English
Default : No
Forced : No

Text #1
ID : 4
Format : UTF-8
Codec ID : S_TEXT/UTF8
Codec ID/Info : UTF-8 Plain Text
Language : Russian
Default : No
Forced : No

Text #2
ID : 5
Format : UTF-8
Codec ID : S_TEXT/UTF8
Codec ID/Info : UTF-8 Plain Text
Language : English
Default : No
Forced : No

Menu
00:00:00.000 : en:00:00:00.000
00:11:50.292 : en:00:11:50.292
00:22:44.375 : en:00:22:44.375
00:31:55.833 : en:00:31:55.833
00:42:47.375 : en:00:42:47.375
00:53:22.583 : en:00:53:22.583
01:01:47.250 : en:01:01:47.250
01:09:53.625 : en:01:09:53.625





_________________
Проголосуй за трекер Открытый торрент трекер - RUS-MEDIA.ORG

Проголосуй Открытый торрент трекер - RUS-MEDIA.ORG


Вернуться к началу
 Профиль Отправить личное сообщение  
 
   Похожие торренты   Автор   Торрент   Размер 
В этой теме нет новых непрочитанных сообщений. Тебя никогда здесь не было / You Were Never Really Here [триллер, драма, детектив, 2017] BDRip 720p, Mvo [iTunes]

salma3

438 | 163

3.85 ГБ

В этой теме нет новых непрочитанных сообщений. Тебя никогда здесь не было / You Were Never Really Here [триллер, драма, детектив, 2017] BDRip 1080p, Mvo

salma3

111 | 119

6.8 ГБ

В этой теме нет новых непрочитанных сообщений. Тебя никогда здесь не было / You Were Never Really Here [триллер, драма, детектив, 2017] BDRip, Mvo [лицензия]

salma3

11 | 1

1.46 ГБ

В этой теме нет новых непрочитанных сообщений. Тебя никогда здесь не было / You Were Never Really Here [триллер, драма, детектив, 2017] BDRip, Mvo [iTunes]

salma3

354 | 69

1.42 ГБ

В этой теме нет новых непрочитанных сообщений. Тебя никогда здесь не было / You Were Never Really Here [триллер, драма, детектив, 2017] HDRip, Mvo

salma3

551 | 157

1.41 ГБ

В этой теме нет новых непрочитанных сообщений. Тебя никогда здесь не было / You Were Never Really Here [триллер, драма, детектив, 2017] BDRemux 1080p, Mvo [iTunes]

salma3

6 | 6

17.95 ГБ

В этой теме нет новых непрочитанных сообщений. Тебя никогда здесь не было / You Were Never Really Here [Tриллер, драма, детектив, 2017] WEBRip, Avo

salma3

0 | 0

1.18 ГБ


Начать новую тему Ответить на тему  [ 1 сообщение ] 




Для Мосгорсуда, Роскомнадзора и рекламодателей:: mosgorsud-torrent[собачка]yandex.ru
cron