Торрент файл
скачать торрент магнет ссылка Добавлен: 23 апр 2018, 16:53
Размер: 6.8 ГБ
Сидеров: 111
Личеров: 119
Статус: (salma3)
Автор

СообщениеДобавлено: 23 апр 2018, 16:53 

Не в сети
Супермодератор
Аватара пользователя
Дата регистрации:
15 фев 2012, 16:44
Возраст: 29
Спасибо: 7333 / 2147
Сообщения: 73912
Год выпуска: 2017
Жанр: триллер, драма, детектив
Режиссер: Линн Рэмси

В ролях: Хоакин Феникс, Екатерина Самсонова, Алекс Манетт, Джон Доумен, Джудит Анна Робертс, Алессандро Нивола, Данте Перейра-Олсон

Описание:
У сурового Джо непростая судьба. Он никого не боится, лишь вспышки воспоминаний заставляют его вздрагивать. Безжалостный герой-одиночка, идущий напролом ради спасения слабых. Для Нины, юной дочери сенатора, Джо — единственная надежда. И даже самые изощрённые и жестокие силы не должны помешать ему вызволить её из ада, в который она попала...



Страна: Великобритания Франция США
Продолжительность: 01:29:29
Перевод: Любительский (многоголосый, закадровый)[HDrezka]

Формат:BDRip 1080p
Видео: 1920x808p (2.40:1), 24 fps, AVC MPEG-4 (H.264), ~8984 kbps, 0.241 bit/pixel
Аудио1: Русский: 48 kHz, AC3 Dolby Digital, 2 ch, ~384 kbps
Аудио2: Английский: 48 kHz, DTS, 6 ch, ~1509 kbps

Формат : Matroska
Версия формата : Version 2
Размер файла : 6,80 Гбайт
Продолжительность : 1 ч. 29 м.
Общий поток : 10,9 Мбит/сек
Дата кодирования : UTC 2018-04-23 04:00:58
Программа кодирования : mkvmerge v7.8.0 ('River Man') 32bit built on Apr 3 2015 12:11:22
Библиотека кодирования : libebml v1.3.1 + libmatroska v1.4.2

Видео
Идентификатор : 1
Формат : AVC
Формат/Информация : Advanced Video Codec
Профиль формата :
Параметр CABAC формата : Да
Параметр RefFrames формата : 5 кадров
Идентификатор кодека : V_MPEG4/ISO/AVC
Продолжительность : 1 ч. 29 м.
Битрейт : 8984 Кбит/сек
Ширина : 1920 пикселей
Высота : 808 пикселей
Соотношение сторон : 2,40:1
Режим частоты кадров : Постоянный
Частота кадров : 24,000 кадра/сек
Цветовое пространство : YUV
Субдискретизация насыщенности : 4:2:0
Битовая глубина : 8 бит
Тип развёртки : Прогрессивная
Бит/(Пиксели*Кадры) : 0.241
Размер потока : 5,48 Гбайт (81%)
Библиотека кодирования : x264 core 155 r2901 7d0ff22
Настройки программы : cabac=1 / ref=5 / deblock=1:-3:-3 / analyse=0x3:0x133 / me=umh / subme=9 / psy=1 / psy_rd=1.00:0.00 / mixed_ref=1 / me_range=16 / chroma_me=1 / trellis=2 / 8x8dct=1 / cqm=0 / deadzone=21,11 / fast_pskip=0 / chroma_qp_offset=-2 / threads=24 / lookahead_threads=2 / sliced_threads=0 / nr=0 / decimate=1 / interlaced=0 / bluray_compat=0 / constrained_intra=0 / bframes=3 / b_pyramid=2 / b_adapt=1 / b_bias=0 / direct=3 / weightb=1 / open_gop=0 / weightp=2 / keyint=240 / keyint_min=24 / scenecut=40 / intra_refresh=0 / rc_lookahead=50 / rc=2pass / mbtree=1 / bitrate=8984 / ratetol=1.0 / qcomp=0.60 / qpmin=0 / qpmax=69 / qpstep=4 / cplxblur=20.0 / qblur=0.5 / ip_ratio=1.40 / aq=1:1.00
Язык : English
Default : Да
Forced : Нет

Аудио #1
Идентификатор : 2
Формат : AC-3
Формат/Информация : Audio Coding 3
Расширение режима : CM (complete main)
Параметр Endianness формата : Big
Идентификатор кодека : A_AC3
Продолжительность : 1 ч. 29 м.
Вид битрейта : Постоянный
Битрейт : 384 Кбит/сек
Каналы : 2 канала
Расположение каналов : Front: L R
Частота : 48,0 КГц
Частота кадров : 31,250 кадров/сек (1536 spf)
Метод сжатия : С потерями
Размер потока : 246 Мбайт (4%)
Язык : Russian
Default : Да
Forced : Да

Аудио #2
Идентификатор : 3
Формат : DTS
Формат/Информация : Digital Theater Systems
Режим : 16
Параметр Endianness формата : Big
Идентификатор кодека : A_DTS
Продолжительность : 1 ч. 29 м.
Вид битрейта : Постоянный
Битрейт : 1509 Кбит/сек
Каналы : 6 каналов
Расположение каналов : Front: L C R, Side: L R, LFE
Частота : 48,0 КГц
Частота кадров : 93,750 кадра/сек (512 spf)
Битовая глубина : 24 бит
Метод сжатия : С потерями
Размер потока : 966 Мбайт (14%)
Язык : English
Default : Нет
Forced : Нет

Текст #1
Идентификатор : 4
Формат : UTF-8
Идентификатор кодека : S_TEXT/UTF8
Идентификатор кодека/Информация : UTF-8 Plain Text
Язык : Russian
Default : Нет
Forced : Нет

Текст #2
Идентификатор : 5
Формат : UTF-8
Идентификатор кодека : S_TEXT/UTF8
Идентификатор кодека/Информация : UTF-8 Plain Text
Язык : English
Default : Нет
Forced : Нет

Меню
00:00:00.000 : en:00:00:00.000
00:11:50.292 : en:00:11:50.292
00:22:44.375 : en:00:22:44.375
00:31:55.833 : en:00:31:55.833
00:42:47.375 : en:00:42:47.375
00:53:22.583 : en:00:53:22.583
01:01:47.250 : en:01:01:47.250
01:09:53.625 : en:01:09:53.625





_________________
Проголосуй за трекер Открытый торрент трекер - RUS-MEDIA.ORG

Проголосуй Открытый торрент трекер - RUS-MEDIA.ORG


Вернуться к началу
 Профиль Отправить личное сообщение  
 
   Похожие торренты   Автор   Торрент   Размер 
В этой теме нет новых непрочитанных сообщений. Тебя никогда здесь не было / You Were Never Really Here [триллер, драма, детектив, 2017] BDRip, Mvo [лицензия]

salma3

11 | 1

1.46 ГБ

В этой теме нет новых непрочитанных сообщений. Тебя никогда здесь не было / You Were Never Really Here [триллер, драма, детектив, 2017] BDRip, Mvo [iTunes]

salma3

354 | 69

1.42 ГБ

В этой теме нет новых непрочитанных сообщений. Тебя никогда здесь не было / You Were Never Really Here [триллер, драма, детектив, 2017] BDRip 720p, Mvo

salma3

232 | 91

4.6 ГБ

В этой теме нет новых непрочитанных сообщений. Тебя никогда здесь не было / You Were Never Really Here [триллер, драма, детектив, 2017] BDRemux 1080p, Mvo [iTunes]

salma3

6 | 6

17.95 ГБ

В этой теме нет новых непрочитанных сообщений. Тебя никогда здесь не было / You Were Never Really Here [триллер, драма, детектив, 2017] BDRip 720p, Mvo [iTunes]

salma3

438 | 163

3.85 ГБ

В этой теме нет новых непрочитанных сообщений. Тебя никогда здесь не было / You Were Never Really Here [Tриллер, драма, детектив, 2017] WEB-DL 1080p, Avo

salma3

0 | 0

3.35 ГБ

В этой теме нет новых непрочитанных сообщений. Тебя никогда здесь не было / You Were Never Really Here [триллер, драма, детектив, 2017] HDRip, Mvo

salma3

551 | 157

1.41 ГБ


Начать новую тему Ответить на тему  [ 1 сообщение ] 




Для Мосгорсуда, Роскомнадзора и рекламодателей:: mosgorsud-torrent[собачка]yandex.ru
cron