Торрент файл
скачать торрент магнет ссылка Добавлен: 21 апр 2018, 12:18
Размер: 14.8 ГБ
Сидеров: 7
Личеров: 3
Статус: (salma3)
Автор

СообщениеДобавлено: 21 апр 2018, 12:18 

Не в сети
Супермодератор
Аватара пользователя
Дата регистрации:
15 фев 2012, 16:44
Возраст: 29
Спасибо: 7379 / 2147
Сообщения: 76077
Год выпуска: 2003
Жанр: боевик, триллер, драма
Режиссер: Анджей Бартковяк

В ролях: Джет Ли, DMX, Энтони Андерсон, Келли Ху, Том Арнольд, Марк Дакаскос, Гэбриэл Юнион, Майкл Джейс, Драг-Он, Пейдж Херд

О фильме: Профессиональный грабитель и секретный агент объединяют свои усилия в борьбе против банды свирепых гангстеров под руководством жестокого мафиози… В центре сюжета — бесценные сокровища — черные алмазы из Тайваня. Сначала их похищает банда чернокожего вора Тони Фейта. Но драгоценности приносят ему лишь неприятности: хозяин камешков, торговец оружием Линг, похищает дочь Фейта и требует вернуть бриллианты. Только возвращать уже нечего: камни снова украдены, на этот раз бандой местного мафиози Джамба Чемберса. Чтобы вернуть дочь и уцелеть самому, Фейт вынужден объединиться с агентом тайваньской разведки Су, который тоже идет по следу бриллиантов. Дело в том, что черные алмазы — совсем не ювелирные драгоценности…



Страна: США
Продолжительность: 01:41:19
Перевод: Профессиональный (многоголосый, закадровый), Профессиональный (двухголосый, закадровый), Авторский (одноголосый, закадровый)

Файл
Качество: WEB-DL 1080p | Open Matte
Формат: Matroska
Видео: 1920x1080 at 23.976 fps, MPEG-4 AVC, ~14300 kbps avg
Аудио#1: Russian: 48 kHz, AC3, 3/2 (L,C,R,l,r) + LFE ch, ~384 kbps avg |Многоголосый закадровый, R5|
Аудио#2: Russian: 48 kHz, AC3, 3/2 (L,C,R,l,r) + LFE ch, ~448 kbps avg |Двухголосый закадровый, LDV|
Аудио#3: Russian: 48 kHz, AC3, 2.0 (L,R) ch, ~192 kbps avg |Двухголосый закадровый, DDV|
Аудио#4: Russian: 48 kHz, AC3, 3/2 (L,C,R,l,r) + LFE ch, ~448 kbps avg |Авторский, А.Гаврилов|
Аудио#5: Russian: 48 kHz, DTS, 3/2 (L,C,R,l,r) + LFE ch, ~1509 kbps avg |Авторский, Ю.Живов|
Аудио#6: Russian: 48 kHz, DTS, 3/2 (L,C,R,l,r) + LFE ch, ~1509 kbps avg |Авторский, Е.Гаевский|
Аудио#7: English: 48 kHz, DTS, 3/2 (L,C,R,l,r) + LFE ch, ~1509 kbps avg |Blu-ray|
Аудио#8: English: 48 kHz, E-AC3, 3/2 (L,C,R,l,r) + LFE ch, ~640 kbps avg |Оригинал - Amazon|
Субтитры: Russian, English (SDH, Amazon)

***Исходник видео: Amazon.
***Релиз: spartanec163.

Общее
Уникальный идентификатор : 183952196941963825703676031246452314899 (0x8A63E7898D70D253B45C2397C616D313)
Полное имя : Cradle.2.the.Grave.2003.Open.Matte.1080p.WEB-DL.6xRus.Eng.mkv
Формат : Matroska
Версия формата : Version 4 / Version 2
Размер файла : 14,8 Гбайт
Продолжительность : 1 ч. 41 м.
Режим общего битрейта : Переменный
Общий поток : 20,9 Мбит/сек
Название фильма : Cradle.2.the.Grave.2003.Open.Matte.1080p.WEB-DL.6xRus.Eng-spartanec163
Дата кодирования : UTC 2018-04-20 17:43:18
Программа кодирования : mkvmerge v8.3.0 ('Over the Horizon') 64bit
Библиотека кодирования : libebml v1.3.1 + libmatroska v1.4.2

Видео
Идентификатор : 1
Формат : AVC
Формат/Информация : Advanced Video Codec
Профиль формата : High@L4.0
Параметр CABAC формата : Да
Параметр ReFrames формата : 4 кадра
Идентификатор кодека : V_MPEG4/ISO/AVC
Продолжительность : 1 ч. 41 м.
Вид битрейта : Переменный
Битрейт : 13,9 Мбит/сек
Максимальный битрейт : 15,0 Мбит/сек
Ширина : 1920 пикселей
Высота : 1080 пикселей
Соотношение сторон : 16:9
Режим частоты кадров : Постоянный
Частота кадров : 23,976 кадра/сек
Цветовое пространство : YUV
Субдискретизация насыщенности : 4:2:0
Битовая глубина : 8 бит
Тип развёртки : Прогрессивная
Бит/(Пиксели*Кадры) : 0.279
Размер потока : 9,81 Гбайт (66%)
Заголовок : WEB-DL 1080p (Amazon)
Язык : English
Default : Да
Forced : Нет
Основные цвета : BT.709
Характеристики трансфера : BT.709
Коэффициенты матрицы : BT.709

Аудио #1
Идентификатор : 2
Формат : AC-3
Формат/Информация : Audio Coding 3
Расширение режима : CM (complete main)
Параметр Endianness формата : Big
Идентификатор кодека : A_AC3
Продолжительность : 1 ч. 41 м.
Вид битрейта : Постоянный
Битрейт : 384 Кбит/сек
Каналы : 6 каналов
Расположение каналов : Front: L C R, Side: L R, LFE
Частота : 48,0 КГц
Битовая глубина : 16 бит
Метод сжатия : С потерями
Размер потока : 278 Мбайт (2%)
Заголовок : AC3 5.1 384Kbps (Профессиональный, многоголосый - R5)
Язык : Russian
Default : Да
Forced : Нет

Аудио #2
Идентификатор : 3
Формат : AC-3
Формат/Информация : Audio Coding 3
Расширение режима : CM (complete main)
Параметр Endianness формата : Big
Идентификатор кодека : A_AC3
Продолжительность : 1 ч. 41 м.
Вид битрейта : Постоянный
Битрейт : 448 Кбит/сек
Каналы : 6 каналов
Расположение каналов : Front: L C R, Side: L R, LFE
Частота : 48,0 КГц
Битовая глубина : 16 бит
Метод сжатия : С потерями
Размер потока : 325 Мбайт (2%)
Заголовок : AC3 5.1 448Kbps (Профессиональный, двухголосый - LDV)
Язык : Russian
Default : Нет
Forced : Нет

Аудио #3
Идентификатор : 4
Формат : AC-3
Формат/Информация : Audio Coding 3
Расширение режима : CM (complete main)
Параметр Endianness формата : Big
Идентификатор кодека : A_AC3
Продолжительность : 1 ч. 41 м.
Вид битрейта : Постоянный
Битрейт : 192 Кбит/сек
Каналы : 2 канала
Расположение каналов : Front: L R
Частота : 48,0 КГц
Битовая глубина : 16 бит
Метод сжатия : С потерями
Размер потока : 139 Мбайт (1%)
Заголовок : AC3 2.0 192Kbps (Профессиональный, двухголосый - DDV)
Язык : Russian
Default : Нет
Forced : Нет

Аудио #4
Идентификатор : 5
Формат : AC-3
Формат/Информация : Audio Coding 3
Расширение режима : CM (complete main)
Параметр Endianness формата : Big
Идентификатор кодека : A_AC3
Продолжительность : 1 ч. 41 м.
Вид битрейта : Постоянный
Битрейт : 448 Кбит/сек
Каналы : 6 каналов
Расположение каналов : Front: L C R, Side: L R, LFE
Частота : 48,0 КГц
Битовая глубина : 16 бит
Метод сжатия : С потерями
Размер потока : 325 Мбайт (2%)
Заголовок : AC3 5.1 448Kbps (Авторский, одноголосый - А. Гаврилов)
Язык : Russian
Default : Нет
Forced : Нет

Аудио #5
Идентификатор : 6
Формат : DTS
Формат/Информация : Digital Theater Systems
Режим : 16
Параметр Endianness формата : Big
Идентификатор кодека : A_DTS
Продолжительность : 1 ч. 41 м.
Вид битрейта : Постоянный
Битрейт : 1509 Кбит/сек
Каналы : 6 каналов
Расположение каналов : Front: L C R, Side: L R, LFE
Частота : 48,0 КГц
Битовая глубина : 24 бит
Метод сжатия : С потерями
Размер потока : 1,07 Гбайт (7%)
Заголовок : DTS 5.1 1509Kbps (Авторский, одноголосый - Ю. Живов)
Язык : Russian
Default : Нет
Forced : Нет

Аудио #6
Идентификатор : 7
Формат : DTS
Формат/Информация : Digital Theater Systems
Режим : 16
Параметр Endianness формата : Big
Идентификатор кодека : A_DTS
Продолжительность : 1 ч. 41 м.
Вид битрейта : Постоянный
Битрейт : 1509 Кбит/сек
Каналы : 6 каналов
Расположение каналов : Front: L C R, Side: L R, LFE
Частота : 48,0 КГц
Битовая глубина : 24 бит
Метод сжатия : С потерями
Размер потока : 1,07 Гбайт (7%)
Заголовок : DTS 5.1 1509Kbps (Одноголосый - Е. Гаевский)
Язык : Russian
Default : Нет
Forced : Нет

Аудио #7
Идентификатор : 8
Формат : DTS
Формат/Информация : Digital Theater Systems
Режим : 16
Параметр Endianness формата : Big
Идентификатор кодека : A_DTS
Продолжительность : 1 ч. 41 м.
Вид битрейта : Постоянный
Битрейт : 1509 Кбит/сек
Каналы : 6 каналов
Расположение каналов : Front: L C R, Side: L R, LFE
Частота : 48,0 КГц
Битовая глубина : 24 бит
Метод сжатия : С потерями
Размер потока : 1,07 Гбайт (7%)
Заголовок : DTS 5.1 1509Kbps (Оригинал - BluRay)
Язык : English
Default : Нет
Forced : Нет

Аудио #8
Идентификатор : 9
Формат : E-AC-3
Формат/Информация : Audio Coding 3
Параметр Endianness формата : Big
Идентификатор кодека : A_EAC3
Продолжительность : 1 ч. 41 м.
Вид битрейта : Постоянный
Битрейт : 640 Кбит/сек
Каналы : 6 каналов
Расположение каналов : Front: L C R, Side: L R, LFE
Частота : 48,0 КГц
Метод сжатия : С потерями
Размер потока : 464 Мбайт (3%)
Заголовок : E-AC3 5.1 640Kbps (Оригинал - Amazon)
Язык : English
Default : Нет
Forced : Нет

Текст #1
Идентификатор : 10
Формат : UTF-8
Идентификатор кодека : S_TEXT/UTF8
Идентификатор кодека/Информация : UTF-8 Plain Text
Язык : Russian
Default : Нет
Forced : Нет

Текст #2
Идентификатор : 11
Формат : UTF-8
Идентификатор кодека : S_TEXT/UTF8
Идентификатор кодека/Информация : UTF-8 Plain Text
Заголовок : SDH, Amazon
Язык : English
Default : Нет
Forced : Нет


_________________
Проголосуй за трекер Открытый торрент трекер - RUS-MEDIA.ORG

Проголосуй Открытый торрент трекер - RUS-MEDIA.ORG


Вернуться к началу
 Профиль Отправить личное сообщение  
 
   Похожие торренты   Автор   Торрент   Размер 
В этой теме нет новых непрочитанных сообщений. От колыбели до могилы / Cradle 2 the Grave [боевик, криминал, 2003] WEB-DLRip, Mvo [Open Matte]

salma3

16 | 6

1.45 ГБ

В этой теме нет новых непрочитанных сообщений. От колыбели до могилы / Cradle 2 the Grave [боевик, триллер, драма, 2003] BDRip 1080p, Mvo

salma3

10 | 10

4.37 ГБ

В этой теме нет новых непрочитанных сообщений. От колыбели до могилы / Cradle 2 the Grave [боевик, триллер, драма, 2003] BDRip-AVC, Mvo

salma3

0 | 0

2.18 ГБ

В этой теме нет новых непрочитанных сообщений. От колыбели до могилы / Cradle 2 the Grave [боевик, триллер, драма, криминал, 2003] BDRip 720p, Mvo

salma3

108 | 32

6.18 ГБ

В этой теме нет новых непрочитанных сообщений. Люди Икс 2 / X2 [фантастика, боевик, триллер, 2003] WEB-DL 1080p. Dub [Open Matte]

salma3

0 | 0

20.66 ГБ

В этой теме нет новых непрочитанных сообщений. Плохие парни 2 / Bad Boys II [боевик, триллер, комедия, 2003] WEB-DL 1080p, Dub [Open Matte]

salma3

28 | 13

22.03 ГБ

В этой теме нет новых непрочитанных сообщений. Одиночка / A Man Apart [Боевик, триллер, драма, 2003] BDRip 720p, Dub [Open Matte]

salma3

0 | 1

7.76 ГБ


Начать новую тему Ответить на тему  [ 1 сообщение ] 




Для Мосгорсуда, Роскомнадзора и рекламодателей:: mosgorsud-torrent[собачка]yandex.ru
cron