Торрент файл
скачать торрент магнет ссылка Добавлен: 19 апр 2018, 13:35
Размер: 5.75 ГБ
Сидеров: 0
Личеров: 0
Статус: (salma3)
Автор

СообщениеДобавлено: 19 апр 2018, 13:35 

Не в сети
Супермодератор
Аватара пользователя
Дата регистрации:
15 фев 2012, 16:44
Возраст: 28
Спасибо: 7163 / 2147
Сообщения: 61819
Год выхода: 1992
Жанр: Драма, комедия, спорт
Режиссер: Рон Шелтон

В ролях: Уэсли Снайпс, Вуди Харрельсон, Рози Перес, Тайра Феррелл, Силк Козарт, Кадим Хардисон, Эрнест Харден мл., Джон Маршалл Джонс, Маркус Джонсон, Дэвид Роберсон, Кевин Бентон, Найджел Мигель, Дуэйн Мартин, Билл Хендерсон, Сонни Кравер, Джон Хендрикс, Элой Касадос, Фрэнк Росси, Фриман Уильямс, Луис Прайс, Алекс Требек, Регги Леон, Сара Ставру, Рейнальдо Рей, Ланей Чэпман, Ирен Неттлз, Торри Уайтхед, Лиза Макдауэлл, Дэвид Максвелл, Дион Б. Винс, Билл Каплан, Ричард Джеймс Бэйкер, Эми Голден, Джанет Срубар, Зандра Хилл, Фред П. Грегори

О фильме:
Действие фильма переносит нас на раскаленный асфальт баскетбольных площадок Лос-Анджелеса. Идет игра — игра на деньги. А там где деньги всегда найдется место парочке жуликов, готовых обмануть доверчивого лоха. Билли, шулер от баскетбола, беззастенчиво пользуется общепринятым мнением, что белый не может играть в баскетбол, не может прыгать. Все складывается отлично, до тех пор пока не приходит время расплачиваться с долгами, наделанными еще в университете. Нужно срочно собрать кругленькую сумму, а в одиночку это проблематично. К этой проблеме присоединяется еще одна, Сидней — чернокожий мошенник. Звезда уличного баскетбола. Похититель женских сердец. Между двумя игроками завязывается нешуточная борьба за звание лучшего баскетболиста, ловеласа, самого удачливого кидалы. Борьба идет до тех пор, пока они не понимают, что в паре можно заработать гораздо больше денег, чем по одиночке.



Страна: США
Студия: 20th Century Fox Film Corporation
Продолжительность: 01:56:50
Перевод: Профессиональный (многоголосый закадровый), профессиональный (двухголосый закадровый), авторский (одноголосый закадровый)

Файл
Кодек: x264
Качество: BDRip 720p
Видео: AVC, 1280x694 (16:9), 23.976 fps, 5 258 Kbps (0.247 bit/pixel)
Аудио #1: AC-3, 48.0 KHz, 6 ch, 384 Kbps, CBR (Russian) - многоголосый R5
Аудио #2: AC-3, 48.0 KHz, 2 ch, 192 Kbps, CBR (Russian) - двухголосый НТВ+
Аудио #3: AC-3, 48.0 KHz, 2 ch, 192 Kbps, CBR (Russian) - двухголосый Лазер Видео
Аудио #4: AC-3, 48.0 KHz, 6 ch, 448 Kbps, CBR (Russian) - авторский Ю.Живов
Аудио #5: AC-3, 48.0 KHz, 2 ch, 192 Kbps, CBR (Russian) - авторский В.Дохалов
Аудио #6: AC-3, 48.0 KHz, 6 ch, 384 Kbps, CBR (English) - оригинал
Субтитры: Русские, английские



Полное имя : D:ФИЛЬМЫБелые люди не умеют прыгатью.1992 (У.Снайпс, В.Харрельсон).mkv
Формат : Matroska
Версия формата : Version 2
Размер файла : 5,75 Гбайт
Продолжительность : 1 ч. 56 м.
Общий поток : 7049 Кбит/сек
Название фильма : Белые не умеют прыгать [Баскетбол – игра для чёрных] | White Men Can't Jump [1992] -= BDRip (AVC) by 0ptimus =-
Дата кодирования : UTC 2018-04-19 07:21:29
Программа кодирования : mkvmerge v5.3.0 ('I could have danced') built on Feb 9 2012 10:38:07
Библиотека кодирования : libebml v1.2.3 + libmatroska v1.3.0
Attachments : poster 2.jpg

Видео
Идентификатор : 1
Формат : AVC
Формат/Информация : Advanced Video Codec
Профиль формата : High@L4.1
Параметр CABAC формата : Да
Параметр ReFrames формата : 9 кадров
Идентификатор кодека : V_MPEG4/ISO/AVC
Продолжительность : 1 ч. 56 м.
Битрейт : 5258 Кбит/сек
Ширина : 1280 пикселей
Высота : 694 пикселя
Соотношение сторон : 1,85:1
Режим частоты кадров : Постоянный
Частота кадров : 23,976 (24000/1001) кадра/сек
Цветовое пространство : YUV
Субдискретизация насыщенности : 4:2:0
Битовая глубина : 8 бит
Тип развёртки : Прогрессивная
Бит/(Пиксели*Кадры) : 0.247
Размер потока : 4,18 Гбайт (73%)
Библиотека кодирования : x264 core 146 r2538 121396c
Настройки программы : cabac=1 / ref=9 / deblock=1:-3:-3 / analyse=0x3:0x133 / me=umh / subme=11 / psy=1 / psy_rd=1.00:0.10 / mixed_ref=1 / me_range=32 / chroma_me=1 / trellis=2 / 8x8dct=1 / cqm=0 / deadzone=21,11 / fast_pskip=0 / chroma_qp_offset=-3 / threads=12 / lookahead_threads=3 / sliced_threads=0 / nr=0 / decimate=0 / interlaced=0 / bluray_compat=0 / constrained_intra=0 / bframes=10 / b_pyramid=2 / b_adapt=2 / b_bias=0 / direct=3 / weightb=1 / open_gop=0 / weightp=2 / keyint=240 / keyint_min=23 / scenecut=40 / intra_refresh=0 / rc=2pass / mbtree=0 / bitrate=5258 / ratetol=1.0 / qcomp=0.60 / qpmin=0 / qpmax=69 / qpstep=4 / cplxblur=20.0 / qblur=0.5 / ip_ratio=1.40 / pb_ratio=1.30 / aq=3:0.90
Язык : English
Default : Да
Forced : Нет

Аудио #1
Идентификатор : 2
Формат : AC-3
Формат/Информация : Audio Coding 3
Расширение режима : CM (complete main)
Параметр Endianness формата : Big
Идентификатор кодека : A_AC3
Продолжительность : 1 ч. 56 м.
Вид битрейта : Постоянный
Битрейт : 384 Кбит/сек
Каналы : 6 каналов
Расположение каналов : Front: L C R, Side: L R, LFE
Частота : 48,0 КГц
Частота кадров : 31,250 кадров/сек (1536 spf)
Битовая глубина : 16 бит
Метод сжатия : С потерями
Размер потока : 321 Мбайт (5%)
Заголовок : Многоголосый (R5)
Язык : Russian
Default : Да
Forced : Нет

Аудио #2
Идентификатор : 3
Формат : AC-3
Формат/Информация : Audio Coding 3
Расширение режима : CM (complete main)
Параметр Endianness формата : Big
Идентификатор кодека : A_AC3
Продолжительность : 1 ч. 56 м.
Вид битрейта : Постоянный
Битрейт : 192 Кбит/сек
Каналы : 2 канала
Расположение каналов : Front: L R
Частота : 48,0 КГц
Частота кадров : 31,250 кадров/сек (1536 spf)
Битовая глубина : 16 бит
Метод сжатия : С потерями
Размер потока : 160 Мбайт (3%)
Заголовок : Двухголосый (Лазер Видео)
Язык : Russian
Default : Нет
Forced : Нет

Аудио #3
Идентификатор : 4
Формат : AC-3
Формат/Информация : Audio Coding 3
Расширение режима : CM (complete main)
Параметр Endianness формата : Big
Идентификатор кодека : A_AC3
Продолжительность : 1 ч. 56 м.
Вид битрейта : Постоянный
Битрейт : 192 Кбит/сек
Каналы : 2 канала
Расположение каналов : Front: L R
Частота : 48,0 КГц
Частота кадров : 31,250 кадров/сек (1536 spf)
Битовая глубина : 16 бит
Метод сжатия : С потерями
Размер потока : 160 Мбайт (3%)
Заголовок : Двухголосый (НТВ+)
Язык : Russian
Default : Нет
Forced : Нет

Аудио #4
Идентификатор : 5
Формат : AC-3
Формат/Информация : Audio Coding 3
Расширение режима : CM (complete main)
Параметр Endianness формата : Big
Идентификатор кодека : A_AC3
Продолжительность : 1 ч. 56 м.
Вид битрейта : Постоянный
Битрейт : 448 Кбит/сек
Каналы : 6 каналов
Расположение каналов : Front: L C R, Side: L R, LFE
Частота : 48,0 КГц
Частота кадров : 31,250 кадров/сек (1536 spf)
Битовая глубина : 16 бит
Метод сжатия : С потерями
Размер потока : 374 Мбайт (6%)
Заголовок : Авторский Ю.Живов
Язык : Russian
Default : Нет
Forced : Нет

Аудио #5
Идентификатор : 6
Формат : AC-3
Формат/Информация : Audio Coding 3
Расширение режима : CM (complete main)
Параметр Endianness формата : Big
Идентификатор кодека : A_AC3
Продолжительность : 1 ч. 56 м.
Вид битрейта : Постоянный
Битрейт : 192 Кбит/сек
Каналы : 2 канала
Расположение каналов : Front: L R
Частота : 48,0 КГц
Частота кадров : 31,250 кадров/сек (1536 spf)
Битовая глубина : 16 бит
Метод сжатия : С потерями
Размер потока : 160 Мбайт (3%)
Заголовок : Авторский В.Дохалов
Язык : Russian
Default : Нет
Forced : Нет

Аудио #6
Идентификатор : 7
Формат : AC-3
Формат/Информация : Audio Coding 3
Расширение режима : CM (complete main)
Параметр Endianness формата : Big
Идентификатор кодека : A_AC3
Продолжительность : 1 ч. 56 м.
Вид битрейта : Постоянный
Битрейт : 384 Кбит/сек
Каналы : 6 каналов
Расположение каналов : Front: L C R, Side: L R, LFE
Частота : 48,0 КГц
Частота кадров : 31,250 кадров/сек (1536 spf)
Битовая глубина : 16 бит
Метод сжатия : С потерями
Размер потока : 321 Мбайт (5%)
Заголовок : Оригинал
Язык : English
Default : Нет
Forced : Нет

Текст #1
Идентификатор : 8
Формат : UTF-8
Идентификатор кодека : S_TEXT/UTF8
Идентификатор кодека/Информация : UTF-8 Plain Text
Язык : Russian
Default : Нет
Forced : Нет

Текст #2
Идентификатор : 9
Формат : UTF-8
Идентификатор кодека : S_TEXT/UTF8
Идентификатор кодека/Информация : UTF-8 Plain Text
Язык : English
Default : Нет
Forced : Нет

Меню
00:00:00.000 : :Chapter 01
00:04:34.816 : :Chapter 02
00:09:00.121 : :Chapter 03
00:19:00.681 : :Chapter 04
00:24:25.463 : :Chapter 05
00:31:06.864 : :Chapter 06
00:36:15.006 : :Chapter 07
00:43:21.223 : :Chapter 08
00:50:48.210 : :Chapter 09
00:58:04.189 : :Chapter 10
01:04:55.266 : :Chapter 11
01:10:32.561 : :Chapter 12
01:14:12.155 : :Chapter 13
01:23:14.072 : :Chapter 14
01:28:26.676 : :Chapter 15
01:33:12.211 : :Chapter 16
01:36:36.081 : :Chapter 17
01:42:31.270 : :Chapter 18
01:47:32.737 : :Chapter 19
01:52:41.963 : :Chapter 20
01:56:50.378 : :Chapter 21





Релиз: &


_________________
Проголосуй за трекер Открытый торрент трекер - RUS-MEDIA.ORG

Проголосуй Открытый торрент трекер - RUS-MEDIA.ORG


Вернуться к началу
 Профиль Отправить личное сообщение  
 
   Похожие торренты   Автор   Торрент   Размер 
В этой теме нет новых непрочитанных сообщений. Белые люди не умеют прыгать / White Men Can't Jump [Драма, комедия, спорт, 1992] BDRip 1080p, Mvo

salma3

0 | 0

13.08 ГБ

В этой теме нет новых непрочитанных сообщений. Белые люди не умеют прыгать / White Men Can't Jump [Драма, комедия, спорт, 1992] BDRemux 1080p, Mvo

salma3

0 | 1

36.59 ГБ

В этой теме нет новых непрочитанных сообщений. Белые пески / White Sands [триллер, драма, криминал, 1992] HDTVRip, Mvo+Avo

salma3

280 | 72

1.44 ГБ

В этой теме нет новых непрочитанных сообщений. Их собственная лига / A League of Their Own [драма, комедия, спорт, 1992] BDRip 1080p, Dub

salma3

4 | 7

18.8 ГБ

В этой теме нет новых непрочитанных сообщений. Их собственная лига / A League of Their Own [драма, комедия, спорт, 1992] BDRip 1080p, Dub

salma3

1 | 2

18.8 ГБ

В этой теме нет новых непрочитанных сообщений. Простые люди / Simple Men [драма, мелодрама, криминал, 1992] BDRip 1080p, Mvo

salma3

11 | 6

7.15 ГБ

В этой теме нет новых непрочитанных сообщений. Гладиатор / Gladiator [Боевик, драма, спорт, 1992] WEB-DL 720p, Mvo

salma3

0 | 0

3.73 ГБ


Начать новую тему Ответить на тему  [ 1 сообщение ] 




Для Мосгорсуда, Роскомнадзора и рекламодателей:: mosgorsud-torrent[собачка]yandex.ru
cron