COVID-19 - Последняя информация о коронавирусе на сайте Минздрава | СИДИТЕ ДОМА!




Торрент файл
скачать торрент магнет ссылка Добавлен: 16 апр 2018, 11:50
Размер: 4.98 ГБ
Сидеров: 0
Личеров: 0
Статус: (salma3)
Автор

СообщениеДобавлено: 16 апр 2018, 11:50 

Не в сети
Супермодератор
Аватара пользователя
Дата регистрации:
15 фев 2012, 16:44
Возраст: 30
Спасибо: 8214 / 2148
Сообщения: 95872
Год выхода: 2006
Жанр: драма, ужасы, триллер
Режиссер: Кольдо Серра / Koldo Serra

В ролях: Гари Олдман, Виржини Ледуайен, Пэдди Консидайн, Айтана Санчес-Хихон, Хон Ариньо, Льюис Омар, Кандидо Уранга, Алекс Ангуло, Савитри Цебаллос, Пачи Бискерт

О фильме:
Пара молодоженов приезжает в отпуск к друзьям в Испанию. Долгожданная встреча после длительной разлуки оборачивается кошмаром в тот момент, когда компания обнаруживает в лесу маленькую девочку с изуродованными руками. Движимые желанием помочь ребенку, герои уносят ребенка из дома, в котором она обитала. Но благородный порыв не находит отклика в сердцах местных старожил. Стремясь отомстить чересчур любопытным и самонадеянным чужакам, они отправляются за ними в погоню, имея неоспоримое преимущество на своей стороне: они знают каждую тропинку и дерево в лесу. Они становятся его тенью!



Страна: Франция, Испания, Великобритания
Продолжительность: 01:37:23
Перевод: Профессиональный (многоголосый закадровый)

Файл
Кодек: h264
Качество: WEB-DL 1080p
Видео: 1920x816, 2.35:1, 6908 kbps, 23.976 FPS
Звук:
Аудио: Русский / Многоголосый закадровый, AC3, 2 ch, 48 KHz, 192 kbps
Аудио 2: Английский, E-AC3, 2 ch, 48 KHz, 224 kbps
Субтитры:
№1: английские (полные), SRT
№2: английские (полные, SDH), SRT
№3: английские (вшитые, на испанскую речь)

Семпл



General
Unique ID : 26380616735114118863987169291193506975 (0x13D8B8D32ACE5990D8F658E5289F5C9F)
Complete name : D:DownloadsThe.Backwoods.2006.WEB-DL.1080p.mkv
Format : Matroska
Format version : Version 4 / Version 2
File size : 4.98 GiB
Duration : 1 h 37 min
Overall bit rate mode : Variable
Overall bit rate : 7 326 kb/s
Encoded date : UTC 2018-04-15 06:39:39
Writing application : mkvmerge v22.0.0 ('At The End Of The World') 64-bit
Writing library : libebml v1.3.5 + libmatroska v1.4.8

Video
ID : 1
Format : AVC
Format/Info : Advanced Video Codec
Format profile : High@L4
Format settings : CABAC / 4 Ref Frames
Format settings, CABAC : Yes
Format settings, ReFrames : 4 frames
Codec ID : V_MPEG4/ISO/AVC
Duration : 1 h 37 min
Bit rate mode : Variable
Bit rate : 6 908 kb/s
Maximum bit rate : 15.0 Mb/s
Width : 1 920 pixels
Height : 816 pixels
Display aspect ratio : 2.35:1
Frame rate mode : Constant
Frame rate : 23.976 (24000/1001) FPS
Color space : YUV
Chroma subsampling : 4:2:0
Bit depth : 8 bits
Scan type : Progressive
Bits/(Pixel*Frame) : 0.184
Stream size : 4.70 GiB (94%)
Default : Yes
Forced : No
Color range : Limited
Color primaries : BT.709
Transfer characteristics : BT.709
Matrix coefficients : BT.709

Audio #1
ID : 2
Format : AC-3
Format/Info : Audio Coding 3
Codec ID : A_AC3
Duration : 1 h 37 min
Bit rate mode : Constant
Bit rate : 192 kb/s
Channel(s) : 2 channels
Channel positions : Front: L R
Sampling rate : 48.0 kHz
Frame rate : 31.250 FPS (1536 SPF)
Bit depth : 16 bits
Compression mode : Lossy
Stream size : 134 MiB (3%)
Title : Профессиональный (многоголосый закадровый)
Language : Russian
Service kind : Complete Main
Default : Yes
Forced : No

Audio #2
ID : 3
Format : E-AC-3
Format/Info : Enhanced Audio Coding 3
Codec ID : A_EAC3
Duration : 1 h 37 min
Bit rate mode : Constant
Bit rate : 224 kb/s
Channel(s) : 2 channels
Channel positions : Front: L R
Sampling rate : 48.0 kHz
Frame rate : 187.500 FPS (256 SPF)
Compression mode : Lossy
Stream size : 156 MiB (3%)
Language : English
Service kind : Complete Main
Default : No
Forced : No

Text #1
ID : 4
Format : UTF-8
Codec ID : S_TEXT/UTF8
Codec ID/Info : UTF-8 Plain Text
Duration : 1 h 33 min
Bit rate : 32 b/s
Count of elements : 824
Stream size : 22.2 KiB (0%)
Language : English
Default : No
Forced : No

Text #2
ID : 5
Format : UTF-8
Codec ID : S_TEXT/UTF8
Codec ID/Info : UTF-8 Plain Text
Duration : 1 h 34 min
Bit rate : 34 b/s
Count of elements : 933
Stream size : 23.7 KiB (0%)
Title : SDH
Language : English
Default : No
Forced : No


_________________
Проголосуй за трекер Открытый торрент трекер - RUS-MEDIA.ORG

Проголосуй Открытый торрент трекер - RUS-MEDIA.ORG


Скачать книги и аудио книги через торрент


Вернуться к началу
 Профиль Отправить личное сообщение  
 
   Похожие торренты   Автор   Торрент   Размер 
В этой теме нет новых непрочитанных сообщений. Темный лес / The Woods [ужасы, триллер, детектив, 2006] WEBRip 1080p, Mvo

salma3

29 | 11

6.42 ГБ

В этой теме нет новых непрочитанных сообщений. Изумрудный лес / The Emerald Forest [драма, приключения, боевик, 1985] BDRip 1080p, Mvo

salma3

8 | 19

10.72 ГБ

В этой теме нет новых непрочитанных сообщений. Среди теней / Among the Shadows [Ужасы, боевик, триллер, 2019] WEB-DL 1080p, Mvo

salma3

7 | 11

6.58 ГБ

В этой теме нет новых непрочитанных сообщений. Чужой лес / Timber Falls [ужасы, триллер, 2007] BDRip, Dub

salma3

24 | 2

1.45 ГБ

В этой теме нет новых непрочитанных сообщений. Обитель теней / Marrowbone [Ужасы, триллер, драма, 2017] WEB-DL 1080p, Dub [iTunes]

salma3

69 | 27

3.94 ГБ

В этой теме нет новых непрочитанных сообщений. Не ходите в лес.. одни! / Don't Go in the Woods [ужасы, 1981] HDRip, Avo

salma3

113 | 34

1.46 ГБ

В этой теме нет новых непрочитанных сообщений. Обитель теней / Marrowbone [Ужасы, триллер, драма, 2017] WEB-DL 720p, Dub [iTunes]

salma3

11 | 26

3.56 ГБ


Начать новую тему Ответить на тему  [ 1 сообщение ] 




Для Мосгорсуда, Роскомнадзора и рекламодателей:: rstracker[собака]yandex.ru
cron