Торрент файл
скачать торрент магнет ссылка Добавлен: 15 апр 2018, 21:01
Размер: 17.45 ГБ
Сидеров: 0
Личеров: 1
Статус: (salma3)
Автор

СообщениеДобавлено: 15 апр 2018, 21:01 

Не в сети
Супермодератор
Аватара пользователя
Дата регистрации:
15 фев 2012, 16:44
Возраст: 28
Спасибо: 7199 / 2147
Сообщения: 64757
Год выхода: 1995
Жанр: драма, криминал, биография
Режиссер: Мартин Скорсезе

В ролях: Роберт Де Ниро, Шэрон Стоун, Джо Пеши, Джеймс Вудс, Фрэнк Винсент, Паскуале Кайано, Кевин Поллак, Дон Риклз, Винни Велла, Алан Кинг, Дик Смотерз, Джозеф Ригано, Джон Блум, Мелисса Профет, Билл Эллисон, Джин Руффини, Доминик Греко, Эрика Фон Таген, Катрин Скорсезе, Филип Суриано

О фильме: Никто не может сравниться с Сэмом Ротстином. Никто не умеет зарабатывать деньги, как он. Никто не умеет работать так самоотверженно и аккуратно, как трудяга Сэм. За свои неоспоримые достоинства Ротстин получил кличку «Ас». И именно поэтому боссы мафии решили отправить Асса заправлять огромным шикарным казино в Лас-Вегасе. А чтобы Сэму никто не мешал работать, мафиози отправили вслед за Ассом друга детства Ротстина — Никки Санторо, отпетого бандита и безжалостного головореза. В Лас-Вегасе Ас как всегда с блеском выполнял свою работу: Казино процветало, водопад денег беспрестанно лился в карманы довольных гангстеров-покровителей. Городские заправилы находились на довольствии у мафии, полицейские и суды были куплены, и, казалось ничто не может омрачить жизнь Асса. Но Господь распорядился иначе. Несокрушимой империи Сэма было суждено утонуть в трагедии и крови. Экранизация по произведению: Николас Пиледжи.



Страна: США, Франция, De Fina-Cappa, Légende Entreprises, Syalis DA, Universal Pictures
Продолжительность: 02:58:20
Перевод: Профессиональный многоголосый, профессиональный двухголосый, авторский

Качество: BDRip 1080p
Видео: MPEG-4 AVC, 11.1 Мбит/с, 1920x816, 23.976 кадр/с
Аудио #1: (AC3, 6 ch, 384 Кбит/с) Профессиональный (двухголосый, закадровый) R5 - лицензия / Супербит / Киномания
Аудио #2: (AC3, 2 ch, 192 Кбит/с) Профессиональный (многоголосый, закадровый) РЕН ТВ / Культура
Аудио #3: (AC3, 2 ch, 192 Кбит/с) Профессиональный (многоголосый, закадровый) ОРТ
Аудио #4: (AC3, 2 ch, 192 Кбит/с) Авторский (одноголосый, закадровый) Сергей Визгунов
Аудио #5: (AC3, 6 ch, 384 Кбит/с) Авторский (одноголосый, закадровый) Андрей Гаврилов
Аудио #6: (AC3, 6 ch, 384 Кбит/с) Авторский (одноголосый, закадровый) Пётр Карцев
Аудио #7: (AC3, 6 ch, 384 Кбит/с) Авторский (одноголосый, закадровый) Дмитрий Штамп
Аудио #8: (AC3, 6 ch, 384 Кбит/с) Авторский (одноголосый, закадровый) Юрий Живов
Аудио #9: (AC3, 6 ch, 384 Кбит/с) Английский

Cубтитры: Русские (полные: Tycoon, Киномания), английские, немецкие, чешские, греческие, румынские

General
Unique ID : 232680549848863637744477574130869997093 (0xAF0CA4D2E5C65099AA3ADDDB362C0E25)
Complete name : G:HD VideoКазино.1995.BDRip.1080p.ПД.2хПМ.5хАП.mkv
Format : Matroska
Format version : Version 2
File size : 17.5 GiB
Duration : 2 h 58 min
Overall bit rate : 14.0 Mb/s
Movie name : -Jackal-
Encoded date : UTC 2018-04-15 08:42:46
Writing application : mkvmerge v4.1.1 ('Bouncin' Back') сборка от Jul 3 2010 22:54:08
Writing library : libebml v1.0.0 + libmatroska v1.0.0
Attachments : CANDARA.TTF / CANDARAB.TTF / CANDARAI.TTF / CANDARAZ.TTF / CronosPro-Bold.ttf / CronosPro-Semibold.ttf / CronosPro-SemiboldIt.ttf

Video
ID : 1
Format : AVC
Format/Info : Advanced Video Codec
Format profile : High@L4.1
Format settings : CABAC / 4 Ref Frames
Format settings, CABAC : Yes
Format settings, ReFrames : 4 frames
Codec ID : V_MPEG4/ISO/AVC
Duration : 2 h 58 min
Bit rate : 11.1 Mb/s
Width : 1 920 pixels
Height : 816 pixels
Display aspect ratio : 2.35:1
Frame rate mode : Constant
Frame rate : 23.976 FPS
Color space : YUV
Chroma subsampling : 4:2:0
Bit depth : 8 bits
Scan type : Progressive
Bits/(Pixel*Frame) : 0.296
Stream size : 13.5 GiB (77%)
Writing library : x264 core 65 r999M cc51047
Encoding settings : cabac=1 / ref=4 / deblock=1:-3:-3 / analyse=0x3:0x113 / me=umh / subme=9 / psy_rd=1.0:0.0 / mixed_ref=1 / me_range=24 / chroma_me=1 / trellis=1 / 8x8dct=1 / cqm=0 / deadzone=21,11 / chroma_qp_offset=-2 / threads=8 / nr=0 / decimate=1 / mbaff=0 / bframes=3 / b_pyramid=1 / b_adapt=2 / b_bias=0 / direct=3 / wpredb=1 / keyint=250 / keyint_min=25 / scenecut=40(pre) / rc=2pass / bitrate=11130 / ratetol=1.0 / qcomp=0.60 / qpmin=10 / qpmax=51 / qpstep=4 / cplxblur=20.0 / qblur=0.5 / ip_ratio=1.40 / pb_ratio=1.30 / aq=1:0.80
Language : English
Default : Yes
Forced : No

Audio #1
ID : 2
Format : AC-3
Format/Info : Audio Coding 3
Muxing mode : Header stripping
Codec ID : A_AC3
Duration : 2 h 58 min
Bit rate mode : Constant
Bit rate : 384 kb/s
Channel(s) : 6 channels
Channel positions : Front: L C R, Side: L R, LFE
Sampling rate : 48.0 kHz
Frame rate : 31.250 FPS (1536 SPF)
Bit depth : 16 bits
Compression mode : Lossy
Stream size : 490 MiB (3%)
Title : Двухголосый - R5 - лицензия / Супербит / Киномания
Language : Russian
Service kind : Complete Main
Default : Yes
Forced : No

Audio #2
ID : 3
Format : AC-3
Format/Info : Audio Coding 3
Muxing mode : Header stripping
Codec ID : A_AC3
Duration : 2 h 58 min
Bit rate mode : Constant
Bit rate : 192 kb/s
Channel(s) : 2 channels
Channel positions : Front: L R
Sampling rate : 48.0 kHz
Frame rate : 31.250 FPS (1536 SPF)
Bit depth : 16 bits
Compression mode : Lossy
Stream size : 245 MiB (1%)
Title : Многоголосый - РЕН ТВ / Культура
Language : Russian
Service kind : Complete Main
Default : No
Forced : No

Audio #3
ID : 4
Format : AC-3
Format/Info : Audio Coding 3
Muxing mode : Header stripping
Codec ID : A_AC3
Duration : 2 h 58 min
Bit rate mode : Constant
Bit rate : 192 kb/s
Channel(s) : 2 channels
Channel positions : Front: L R
Sampling rate : 48.0 kHz
Frame rate : 31.250 FPS (1536 SPF)
Bit depth : 16 bits
Compression mode : Lossy
Stream size : 245 MiB (1%)
Title : Многоголосый - ОРТ
Language : Russian
Service kind : Complete Main
Default : No
Forced : No

Audio #4
ID : 5
Format : AC-3
Format/Info : Audio Coding 3
Muxing mode : Header stripping
Codec ID : A_AC3
Duration : 2 h 58 min
Bit rate mode : Constant
Bit rate : 192 kb/s
Channel(s) : 2 channels
Channel positions : Front: L R
Sampling rate : 48.0 kHz
Frame rate : 31.250 FPS (1536 SPF)
Bit depth : 16 bits
Compression mode : Lossy
Stream size : 245 MiB (1%)
Title : Авторский - Сергей Визгунов
Language : Russian
Service kind : Complete Main
Default : No
Forced : No

Audio #5
ID : 6
Format : AC-3
Format/Info : Audio Coding 3
Muxing mode : Header stripping
Codec ID : A_AC3
Duration : 2 h 58 min
Bit rate mode : Constant
Bit rate : 384 kb/s
Channel(s) : 6 channels
Channel positions : Front: L C R, Side: L R, LFE
Sampling rate : 48.0 kHz
Frame rate : 31.250 FPS (1536 SPF)
Bit depth : 16 bits
Compression mode : Lossy
Stream size : 490 MiB (3%)
Title : Авторский - Андрей Гаврилов
Language : Russian
Service kind : Complete Main
Default : No
Forced : No

Audio #6
ID : 7
Format : AC-3
Format/Info : Audio Coding 3
Muxing mode : Header stripping
Codec ID : A_AC3
Duration : 2 h 58 min
Bit rate mode : Constant
Bit rate : 384 kb/s
Channel(s) : 6 channels
Channel positions : Front: L C R, Side: L R, LFE
Sampling rate : 48.0 kHz
Frame rate : 31.250 FPS (1536 SPF)
Bit depth : 16 bits
Compression mode : Lossy
Stream size : 490 MiB (3%)
Title : Авторский - Пётр Карцев
Language : Russian
Service kind : Complete Main
Default : No
Forced : No

Audio #7
ID : 8
Format : AC-3
Format/Info : Audio Coding 3
Muxing mode : Header stripping
Codec ID : A_AC3
Duration : 2 h 58 min
Bit rate mode : Constant
Bit rate : 384 kb/s
Channel(s) : 6 channels
Channel positions : Front: L C R, Side: L R, LFE
Sampling rate : 48.0 kHz
Frame rate : 31.250 FPS (1536 SPF)
Bit depth : 16 bits
Compression mode : Lossy
Stream size : 490 MiB (3%)
Title : Авторский - Дмитрий Штамп
Language : Russian
Service kind : Complete Main
Default : No
Forced : No

Audio #8
ID : 9
Format : AC-3
Format/Info : Audio Coding 3
Muxing mode : Header stripping
Codec ID : A_AC3
Duration : 2 h 58 min
Bit rate mode : Constant
Bit rate : 384 kb/s
Channel(s) : 6 channels
Channel positions : Front: L C R, Side: L R, LFE
Sampling rate : 48.0 kHz
Frame rate : 31.250 FPS (1536 SPF)
Bit depth : 16 bits
Compression mode : Lossy
Stream size : 490 MiB (3%)
Title : Авторский - Юрий Живов
Language : Russian
Service kind : Complete Main
Default : No
Forced : No

Audio #9
ID : 10
Format : AC-3
Format/Info : Audio Coding 3
Muxing mode : Header stripping
Codec ID : A_AC3
Duration : 2 h 58 min
Bit rate mode : Constant
Bit rate : 384 kb/s
Channel(s) : 6 channels
Channel positions : Front: L C R, Side: L R, LFE
Sampling rate : 48.0 kHz
Frame rate : 31.250 FPS (1536 SPF)
Bit depth : 16 bits
Compression mode : Lossy
Stream size : 490 MiB (3%)
Title : Оригинал
Language : English
Service kind : Complete Main
Default : No
Forced : No

Text #1
ID : 11
Format : UTF-8
Codec ID : S_TEXT/UTF8
Codec ID/Info : UTF-8 Plain Text
Title : Tycoon
Language : Russian
Default : Yes
Forced : No

Text #2
ID : 12
Format : UTF-8
Codec ID : S_TEXT/UTF8
Codec ID/Info : UTF-8 Plain Text
Title : Киномания
Language : Russian
Default : No
Forced : No

Text #3
ID : 13
Format : UTF-8
Codec ID : S_TEXT/UTF8
Codec ID/Info : UTF-8 Plain Text
Language : Russian
Default : No
Forced : No

Text #4
ID : 14
Format : ASS
Codec ID : S_TEXT/ASS
Codec ID/Info : Advanced Sub Station Alpha
Compression mode : Lossless
Language : English
Default : No
Forced : No

Text #5
ID : 15
Format : UTF-8
Codec ID : S_TEXT/UTF8
Codec ID/Info : UTF-8 Plain Text
Language : German
Default : No
Forced : No

Text #6
ID : 16
Format : UTF-8
Codec ID : S_TEXT/UTF8
Codec ID/Info : UTF-8 Plain Text
Language : Czech
Default : No
Forced : No

Text #7
ID : 17
Format : UTF-8
Codec ID : S_TEXT/UTF8
Codec ID/Info : UTF-8 Plain Text
Language : Greek
Default : No
Forced : No

Text #8
ID : 18
Format : UTF-8
Codec ID : S_TEXT/UTF8
Codec ID/Info : UTF-8 Plain Text
Language : Romanian
Default : No
Forced : No


_________________
Проголосуй за трекер Открытый торрент трекер - RUS-MEDIA.ORG

Проголосуй Открытый торрент трекер - RUS-MEDIA.ORG


Вернуться к началу
 Профиль Отправить личное сообщение  
 
   Похожие торренты   Автор   Торрент   Размер 
В этой теме нет новых непрочитанных сообщений. Казино Джек / Casino Jack [Драма, комедия, криминал, биография, 2009] BDRip 720p, Dub+Sub

salma3

67 | 19

6.41 ГБ

В этой теме нет новых непрочитанных сообщений. 007: Казино Рояль / 007: Casino Royale [боевик, триллер, криминал, 2006] BDRip 1080p, Dub

salma3

12 | 3

4.37 ГБ

В этой теме нет новых непрочитанных сообщений. Казино Рояль / Casino Royale [Боевик, триллер, приключения, 2006] BDRip 1080p, Dub

salma3

13 | 8

15.49 ГБ

В этой теме нет новых непрочитанных сообщений. Казино Рояль / Casino Royale [комедия, 1967] BDRip 720p, Mvo

salma3

3 | 2

6.77 ГБ

В этой теме нет новых непрочитанных сообщений. Храброе сердце / Braveheart (Мэл Гибсон) [1995, боевик, драма, военный, биография, BDRip, 1080p]

marya111

0 | 1

16.91 ГБ

В этой теме нет новых непрочитанных сообщений. Шлюха / Jade [триллер, драма, криминал, 1995] BDRip 1080p, Mvo+Avo

salma3

71 | 32

11.6 ГБ

В этой теме нет новых непрочитанных сообщений. Там внутри / Underneath [Триллер, драма, криминал, 1995] BDRip 1080p, Mvo

salma3

20 | 21

7.1 ГБ


Начать новую тему Ответить на тему  [ 1 сообщение ] 




Для Мосгорсуда, Роскомнадзора и рекламодателей:: mosgorsud-torrent[собачка]yandex.ru
cron