Торрент файл
скачать торрент магнет ссылка Добавлен: 15 апр 2018, 11:08
Размер: 8.95 ГБ
Сидеров: 0
Личеров: 0
Статус: (salma3)
Автор

СообщениеДобавлено: 15 апр 2018, 11:08 

Не в сети
Супермодератор
Аватара пользователя
Дата регистрации:
15 фев 2012, 16:44
Возраст: 28
Спасибо: 7203 / 2147
Сообщения: 65070
Год выпуска: 1986
Жанр: ужасы, фантастика
Режиссер: Тоуб Хупер / Tobe Hooper

В ролях: Карен Блэк /Karen Black/, Хантер Карсон /Hunter Carson/, Тимоти Боттомс /Timothy Bottoms/, Луиз Флетчер /Louise Fletcher/, Бад Корт /Bud Cort/, Джеймс Кэрен /James Karen/, Лэрэйн Ньюмэн /Laraine Newman/, Джимми Хант /Jimmy Hunt/

Описание:
Вторгнувшись на Землю, марсиане обосновываются в американской глубинке и подчиняют себе людей, превращая их в послушные машины. Противостоит им обыкновенный мальчишка, который хочет спасти своих родителей.



Страна: США
Продолжительность: 01:39:29
Перевод: Авторский (одноголосый, закадровый)(Ю.Живов)
Оригинальная аудиодорожка: английский
Субтитры: английские

Файл
Качество: BDRip 1080p
Формат: MKV
Видео: MPEG-4 AVC Video / ~12500 kbps / 1920x812 / 23,976 fps / High Profile 4.1
Аудио1: Русский, AC3 2.0 192 Kbps 48,0 КГц
Аудио2: English, AC3 2.0 192 Kbps 48,0 КГц
Субтитры: Softsub (SRT)



General
Unique ID : 115079582779612702871352024639424548580 (0x5693857D80F2E409C1CB56A0BD11CEE4)
Complete name : F:FILMSПришельцы с Марса_1986_BLU-RAY_1080p_[-=DoMiNo=-].mkv
Format : Matroska
Format version : Version 4 / Version 2
File size : 8.95 GiB
Duration : 1 h 39 min
Overall bit rate : 12.9 Mb/s
Movie name : Пришельцы с Марса
Deion : Вторгшиеся на Землю марсиане обосновываются в американской глубинке и подчиняют себе людей, превращая из в послушные машины. Противостоит им мальчишка, который хочет спасти своих родителей.
Writing application : Lavf
Writing library : Lavf
ErrorDetectionType : Per level 1
Attachments : poster.jpg
ACTORS : Hunter Carson, Karen Black, Timothy Bottoms, Laraine Newman, James Karen, Bud Cort, Louise Fletcher, Eric Pierpoint, Christopher Allport, Virginya Keehne, Kenneth Kimmins, Charlie Dell, Chris Hebert, Mason Nupuf, William Frankfather, Debra Berger, Eddy Donno, Mark Giardino, Donald Hotton, Jimmy Hunt, William Bassett, Dale Dye, Scott Leva, Steven Lambert, Debbie Lee Carrington, Tony Cox, Sal Fondacaro, Randall Wulff
COUNTRY : United States
DATE : 1986-01-01
DIRECTOR : Tobe Hooper
GENRE : детектив, фантастика, ужасы
HD_VIDEO : 1
Language : und
MEDIA_TYPE : 9
ORIGINAL_TITLE : Invaders from Mars
PRODUCER : Menahem Golan, Yoram Globus
PUBLISHER : Cannon Pictures
RATING : 5.40
WRITER : Don Jakoby, Dan O'Bannon

Video
ID : 1
Format : AVC
Format/Info : Advanced Video Codec
Format profile : High@L4.1
Format settings : CABAC / 5 Ref Frames
Format settings, CABAC : Yes
Format settings, ReFrames : 5 frames
Codec ID : V_MPEG4/ISO/AVC
Duration : 1 h 39 min
Bit rate : 12.5 Mb/s
Width : 1 920 pixels
Height : 812 pixels
Display aspect ratio : 2.35:1
Frame rate mode : Constant
Frame rate : 23.976 (24000/1001) FPS
Color space : YUV
Chroma subsampling : 4:2:0
Bit depth : 8 bits
Scan type : Progressive
Bits/(Pixel*Frame) : 0.334
Stream size : 8.51 GiB (95%)
Title : RIP_BY_-=DoMiNo=-
Writing library : x264 core 155 r2901M 7d0ff22
Encoding settings : cabac=1 / ref=5 / deblock=1:-1:-1 / analyse=0x3:0x113 / me=umh / subme=11 / psy=1 / psy_rd=1.00:0.05 / mixed_ref=1 / me_range=48 / chroma_me=1 / trellis=2 / 8x8dct=1 / cqm=0 / deadzone=21,11 / fast_pskip=0 / chroma_qp_offset=-3 / threads=6 / lookahead_threads=1 / sliced_threads=0 / nr=0 / decimate=1 / interlaced=0 / bluray_compat=0 / constrained_intra=0 / bframes=9 / b_pyramid=2 / b_adapt=2 / b_bias=0 / direct=3 / weightb=1 / open_gop=0 / weightp=2 / keyint=240 / keyint_min=24 / scenecut=40 / intra_refresh=0 / rc_lookahead=100 / rc=2pass / mbtree=0 / bitrate=12500 / ratetol=1.0 / qcomp=0.70 / qpmin=0 / qpmax=69 / qpstep=4 / cplxblur=20.0 / qblur=0.5 / vbv_maxrate=50000 / vbv_bufsize=50000 / nal_hrd=none / filler=0 / ip_ratio=1.40 / pb_ratio=1.30 / aq=1:0.70
Default : Yes
Forced : No
Color range : Limited
Color primaries : BT.709
Transfer characteristics : BT.709
Matrix coefficients : BT.709

Audio #1
ID : 2
Format : AC-3
Format/Info : Audio Coding 3
Codec ID : A_AC3
Duration : 1 h 39 min
Bit rate mode : Constant
Bit rate : 192 kb/s
Channel(s) : 2 channels
Channel positions : Front: L R
Sampling rate : 48.0 kHz
Frame rate : 31.250 FPS (1536 SPF)
Bit depth : 16 bits
Compression mode : Lossy
Stream size : 137 MiB (1%)
Title : Zhivov AC3 2.0 192 kbps
Language : Russian
Service kind : Complete Main
Default : Yes
Forced : No

Audio #2
ID : 3
Format : AC-3
Format/Info : Audio Coding 3
Codec ID : A_AC3
Duration : 1 h 39 min
Bit rate mode : Constant
Bit rate : 192 kb/s
Channel(s) : 2 channels
Channel positions : Front: L R
Sampling rate : 48.0 kHz
Frame rate : 31.250 FPS (1536 SPF)
Bit depth : 16 bits
Compression mode : Lossy
Stream size : 137 MiB (1%)
Title : Original AC3 2.0 192 kbps
Language : English
Service kind : Complete Main
Default : No
Forced : No

Text
ID : 4
Format : UTF-8
Codec ID : S_TEXT/UTF8
Codec ID/Info : UTF-8 Plain Text
Title : ENG
Language : English
Default : Yes
Forced : No

Menu
00:00:00.000 : :00:00:00.000
00:03:00.389 : :00:03:00.389
00:08:02.691 : :00:08:02.691
00:14:19.484 : :00:14:19.484
00:22:17.002 : :00:22:17.002
00:29:06.119 : :00:29:06.119
00:34:38.118 : :00:34:38.118
00:42:18.703 : :00:42:18.703
00:47:50.076 : :00:47:50.076
00:52:53.128 : :00:52:53.128
01:01:11.126 : :01:01:11.126
01:07:45.687 : :01:07:45.687
01:16:41.430 : :01:16:41.430
01:22:20.102 : :01:22:20.102
01:32:26.374 : :01:32:26.374
01:35:57.210 : :01:35:57.210




_________________
Проголосуй за трекер Открытый торрент трекер - RUS-MEDIA.ORG

Проголосуй Открытый торрент трекер - RUS-MEDIA.ORG


Вернуться к началу
 Профиль Отправить личное сообщение  
 
   Похожие торренты   Автор   Торрент   Размер 
В этой теме нет новых непрочитанных сообщений. Пришельцы с Марса / Invaders from Mars [ужасы, фантастика, 1986] BDRip, Avo

salma3

12 | 11

1.45 ГБ

В этой теме нет новых непрочитанных сообщений. Призраки Марса / Ghosts of Mars [Ужасы, фантастика, боевик, 2001] BDRip-AVC, Mvo+Avo+Sub

salma3

35 | 1

2.91 ГБ

В этой теме нет новых непрочитанных сообщений. Призраки Марса / Ghosts of Mars [Фантастика, ужасы, боевик, 2001] BDRip 720p, Mvo

salma3

0 | 0

5.75 ГБ

В этой теме нет новых непрочитанных сообщений. Звёздный десант: Предатель Марса / Starship Troopers: Traitor of Mars [Мультфильм, фантастика, боевик, 2017] BDRip 1080p, Mvo [Лицензия]

salma3

32 | 21

8.75 ГБ

В этой теме нет новых непрочитанных сообщений. Звёздный десант: Предатель Марса / Starship Troopers: Traitor of Mars [мультфильм, фантастика, боевик, 2017] BDRip 1080p, Mvo [iTunes]

salma3

1494 | 727

12.15 ГБ

В этой теме нет новых непрочитанных сообщений. Звёздный десант: Предатель Марса / Starship Troopers: Traitor of Mars [Мультфильм, фантастика, боевик, 2017] Blu-Ray EUR 1080p, Dub [Лицензия]

salma3

12 | 57

31.09 ГБ

В этой теме нет новых непрочитанных сообщений. Звёздный десант: Предатель Марса / Starship Troopers: Traitor of Mars [мультфильм, фантастика, боевик, 2017] BDRip, Mvo [Лицензия]

salma3

1 | 49

1.46 ГБ


Начать новую тему Ответить на тему  [ 1 сообщение ] 




Для Мосгорсуда, Роскомнадзора и рекламодателей:: mosgorsud-torrent[собачка]yandex.ru
cron