COVID-19 - Последняя информация о коронавирусе на сайте Минздрава




Торрент файл
скачать торрент магнет ссылка Добавлен: 14 апр 2018, 11:35
Размер: 10.33 ГБ
Сидеров: 0
Личеров: 1
Статус: (salma3)
Автор

СообщениеДобавлено: 14 апр 2018, 11:35 

Не в сети
Супермодератор
Аватара пользователя
Дата регистрации:
15 фев 2012, 16:44
Возраст: 31
Спасибо: 8281 / 2148
Сообщения: 96721
Год выхода: 2005
Жанр: приключения, комедия, семейный
Режиссер: Анджела Робинсон / Angela Robinson

В ролях: Линдси Лохан, Майкл Китон, Мэтт Диллон, Брекин Мейер, Джастин Лонг, Шерил Хайнс, Джимми Симпсон, Джилл Ричи, Томас Леннон, Джереми Робертс

О фильме:
Херби — классический Фольксваген «Жук». Он немного странный, в его механическом теле живет нежная и ранимая душа романтика и мечта стать победителем самых престижных кольцевых гонок мира. Наконец его мечта приближается к реальности — знаменитая машина попадает на гонки NASCAR. Новая владелица Херби, обладающая вздорным нравом и желанием побеждать, мечтает о том же — теперь они готовы покорить эту головокружительную высоту вместе!



Страна: США
Продолжительность: 01:41:04
Перевод: Профессиональный (дублированный) Невафильм
Перевод 2: Профессиональный (многоголосый закадровый) Tycoon-Studio

Файл
Кодек: h264
Качество: WEB-DL 1080p
Видео: 1920x1080, 16:9, 13200 kbps, 23.976 FPS
Звук:
Аудио: Русский / Дублированный (Невафильм), AC3, 6 ch, 48 KHz, 384 kbps
Аудио 2: Русский / Многоголосый закадровый (Tycoon-Studio), AC3, 6 ch, 48 KHz, 448 kbps
Аудио 3: Английский, AC3, 6 ch, 48 KHz, 640 kbps
Субтитры: русские (полные, форсированные), украинские (полные, форсированные), английские (SRT)

Семпл

General
Unique ID : 255525360071536110619007949338065080343 (0xC03C64EDA5B6331348390596571D9017)
Complete name : D:DownloadsHerbie.Fully.Loaded.2005.WEB-DL.1080p.mkv
Format : Matroska
Format version : Version 4 / Version 2
File size : 10.3 GiB
Duration : 1 h 41 min
Overall bit rate mode : Variable
Overall bit rate : 14.6 Mb/s
Encoded date : UTC 2018-04-13 17:31:13
Writing application : mkvmerge v22.0.0 ('At The End Of The World') 64-bit
Writing library : libebml v1.3.5 + libmatroska v1.4.8

Video
ID : 1
Format : AVC
Format/Info : Advanced Video Codec
Format profile : High@L4
Format settings : CABAC / 4 Ref Frames
Format settings, CABAC : Yes
Format settings, ReFrames : 4 frames
Codec ID : V_MPEG4/ISO/AVC
Duration : 1 h 41 min
Bit rate mode : Variable
Bit rate : 13.2 Mb/s
Maximum bit rate : 15.0 Mb/s
Width : 1 920 pixels
Height : 1 080 pixels
Display aspect ratio : 16:9
Frame rate mode : Constant
Frame rate : 23.976 (24000/1001) FPS
Color space : YUV
Chroma subsampling : 4:2:0
Bit depth : 8 bits
Scan type : Progressive
Bits/(Pixel*Frame) : 0.265
Stream size : 9.29 GiB (90%)
Default : Yes
Forced : No
Color range : Limited
Color primaries : BT.709
Transfer characteristics : BT.709
Matrix coefficients : BT.709

Audio #1
ID : 2
Format : AC-3
Format/Info : Audio Coding 3
Codec ID : A_AC3
Duration : 1 h 41 min
Bit rate mode : Constant
Bit rate : 384 kb/s
Channel(s) : 6 channels
Channel positions : Front: L C R, Side: L R, LFE
Sampling rate : 48.0 kHz
Frame rate : 31.250 FPS (1536 SPF)
Bit depth : 16 bits
Compression mode : Lossy
Stream size : 278 MiB (3%)
Title : Профессиональный (полное дублирование) | Невафильм
Language : Russian
Service kind : Complete Main
Default : Yes
Forced : No

Audio #2
ID : 3
Format : AC-3
Format/Info : Audio Coding 3
Codec ID : A_AC3
Duration : 1 h 40 min
Bit rate mode : Constant
Bit rate : 448 kb/s
Channel(s) : 6 channels
Channel positions : Front: L C R, Side: L R, LFE
Sampling rate : 48.0 kHz
Frame rate : 31.250 FPS (1536 SPF)
Bit depth : 16 bits
Compression mode : Lossy
Stream size : 323 MiB (3%)
Title : Профессиональный (многоголосый, закадровый) | Tycoon-Studio
Language : Russian
Service kind : Complete Main
Default : No
Forced : No

Audio #3
ID : 4
Format : E-AC-3
Format/Info : Enhanced Audio Coding 3
Codec ID : A_EAC3
Duration : 1 h 41 min
Bit rate mode : Constant
Bit rate : 640 kb/s
Channel(s) : 6 channels
Channel positions : Front: L C R, Side: L R, LFE
Sampling rate : 48.0 kHz
Frame rate : 187.500 FPS (256 SPF)
Compression mode : Lossy
Stream size : 463 MiB (4%)
Language : English
Service kind : Complete Main
Default : No
Forced : No

Text #1
ID : 5
Format : UTF-8
Codec ID : S_TEXT/UTF8
Codec ID/Info : UTF-8 Plain Text
Duration : 1 h 34 min
Bit rate : 82 b/s
Count of elements : 970
Stream size : 57.0 KiB (0%)
Title : Русские (полные)
Language : Russian
Default : No
Forced : No

Text #2
ID : 6
Format : UTF-8
Codec ID : S_TEXT/UTF8
Codec ID/Info : UTF-8 Plain Text
Duration : 1 h 34 min
Bit rate : 2 b/s
Count of elements : 41
Stream size : 1.85 KiB (0%)
Title : Русские (формированные)
Language : Russian
Default : No
Forced : No

Text #3
ID : 7
Format : UTF-8
Codec ID : S_TEXT/UTF8
Codec ID/Info : UTF-8 Plain Text
Duration : 1 h 34 min
Bit rate : 81 b/s
Count of elements : 970
Stream size : 56.2 KiB (0%)
Title : Украинские (полные)
Language : Ukrainian
Default : No
Forced : No

Text #4
ID : 8
Format : UTF-8
Codec ID : S_TEXT/UTF8
Codec ID/Info : UTF-8 Plain Text
Duration : 1 h 34 min
Bit rate : 2 b/s
Count of elements : 41
Stream size : 1.76 KiB (0%)
Title : Украинские (форсированные)
Language : Ukrainian
Default : No
Forced : No

Text #5
ID : 9
Format : UTF-8
Codec ID : S_TEXT/UTF8
Codec ID/Info : UTF-8 Plain Text
Duration : 1 h 40 min
Bit rate : 71 b/s
Count of elements : 1602
Stream size : 52.5 KiB (0%)
Title : English (full)
Language : English
Default : No
Forced : No


_________________
Проголосуй за трекер Открытый торрент трекер - RUS-MEDIA.ORG

Проголосуй Открытый торрент трекер - RUS-MEDIA.ORG


Скачать книги и аудио книги через торрент


Вернуться к началу
 Профиль Отправить личное сообщение  
 
   Похожие торренты   Автор   Торрент   Размер 
В этой теме нет новых непрочитанных сообщений. Сумасшедшие гонки / Herbie: Fully Loaded [Комедия, приключения, семейный, 2005] BDRip 1080p, Dub

salma3

0 | 0

9.75 ГБ

В этой теме нет новых непрочитанных сообщений. Большие гонки / The Great Race [Комедия, приключения, семейный, 1965] HDTVRip-AVC, Dub

salma3

0 | 0

4.37 ГБ

В этой теме нет новых непрочитанных сообщений. Снежные гонки / Racetime [Мультфильм, комедия, приключения, 2018] BDRemux 1080p, Dub [iTunes]

salma3

0 | 0

17.45 ГБ

В этой теме нет новых непрочитанных сообщений. Заряженное оружие 1 / Loaded Weapon 1 [боевик, комедия, криминал, 1993] WEB-DL 1080p, Avo

salma3

0 | 0

8.08 ГБ

В этой теме нет новых непрочитанных сообщений. Придурки из Хаззарда / The Dukes of Hazzard [боевик, комедия, приключения, 2005] WEB-DL 1080p, Dub [UNRATED]

salma3

0 | 0

4.59 ГБ

В этой теме нет новых непрочитанных сообщений. Экстремальные гонки / Tau man ji D / Initial D [боевик, триллер, комедия, 2005] BDRip 1080p, Mvo

salma3

0 | 0

8.62 ГБ

В этой теме нет новых непрочитанных сообщений. Невероятные приключения янки в Африке / Yankee Zulu [Комедия, приключения, семейный, 1993] WEB-DL 1080p, Mvo

salma3

10 | 2

9.1 ГБ


Начать новую тему Ответить на тему  [ 1 сообщение ] 




Для Мосгорсуда, Роскомнадзора и рекламодателей:: rstracker[собака]yandex.ru
cron