Торрент файл
скачать торрент магнет ссылка Добавлен: 11 апр 2018, 11:57
Размер: 18.66 ГБ
Сидеров: 0
Личеров: 1
Статус: (salma3)
Автор

СообщениеДобавлено: 11 апр 2018, 11:57 

Не в сети
Супермодератор
Аватара пользователя
Дата регистрации:
15 фев 2012, 16:44
Возраст: 29
Спасибо: 7379 / 2147
Сообщения: 76077
Год выхода: 2004
Жанр: Ужасы, фантастика, боевик
Режиссер: Пол У. С. Андерсон / Paul W.S. Anderson

В ролях: Санаа Лэтэн, Рауль Бова, Лэнс Хенриксен, Юэн Бремнер, Колин Сэлмон, Томми Флэнаган, Джозеф Рай, Агат Де Ла Булае, Карстен Норгаард, Сэм Тротон

О фильме:
Наши дни. Группа ученых отправляется в Антарктиду, чтобы отыскать колыбель цивилизации, царившей на Земле многие тысячелетия назад. Под толщей льда они находят пирамиды, в которых обнаруживают человеческие скелеты и следы жизнедеятельности чужих.Однако они еще не знают, что уже находятся под колпаком у хозяев этого города - хищников, и их дни сочтены. Человеческая приманка поможет хищникам, наконец, завершить войну двух космических цивилизаций…



Страна: Германия, США, Чехия, Великобритания
Студия: 20th Century Fox
Продолжительность: 01:48:41
Перевод: Дублированный, профессиональный многоголосый, авторский.

Файл
Кодек: х.264
Качество: BDRip 1080p
Видео: 1920x818, 23.976 fps, 18500 kbps
Звук:
Russian: DTS / 5.1 / 48 kHz / 1509 kbps / 24 bit - дублированный (Крат11)
Russian: DTS / 5.1 / 48 kHz / 1509 kbps / 24 bit - многоголосый
Russian: DTS / 5.1 / 48 kHz / 1509 kbps / 24 bit - Гаврилов
English: DTS / 5.1 / 48 kHz / 1509 kbps / 24 bit
Субтитры: Русские

* в дубляже присутствуют вставки многоголосого перевода.

Unique ID : 284481278383243807856102159644106652784 (0xD60519EC8A9800E283F7E5BA9D1B7C70)
Complete name : D:STIMCOAVP.Unrated.2004.x264.FHDRip.1080p.stimco.mkv
Format : Matroska
Format version : Version 4 / Version 2
File size : 18.7 GiB
Duration : 1 h 48 min
Overall bit rate : 24.6 Mb/s
Movie name : =AvP_Unrated=
Encoded date : UTC 2018-04-11 05:39:47
Writing application : mkvmerge v22.0.0 ('At The End Of The World') 64-bit
Writing library : libebml v1.3.5 + libmatroska v1.4.8

Video
ID : 1
Format : AVC
Format/Info : Advanced Video Codec
Format profile : High@L4.1
Format settings : CABAC / 5 Ref Frames
Format settings, CABAC : Yes
Format settings, ReFrames : 5 frames
Codec ID : V_MPEG4/ISO/AVC
Duration : 1 h 48 min
Bit rate : 18.5 Mb/s
Width : 1 920 pixels
Height : 818 pixels
Display aspect ratio : 2.35:1
Frame rate mode : Constant
Frame rate : 23.976 (24000/1001) FPS
Color space : YUV
Chroma subsampling : 4:2:0
Bit depth : 8 bits
Scan type : Progressive
Bits/(Pixel*Frame) : 0.492
Stream size : 14.1 GiB (75%)
Title : =stimco=
Writing library : x264 core 155 r2901 7d0ff22
Encoding settings : cabac=1 / ref=5 / deblock=1:-2:-2 / analyse=0x3:0x133 / me=umh / subme=10 / psy=1 / psy_rd=1.00:0.10 / mixed_ref=1 / me_range=48 / chroma_me=1 / trellis=2 / 8x8dct=1 / cqm=0 / deadzone=21,11 / fast_pskip=1 / chroma_qp_offset=-2 / threads=6 / lookahead_threads=1 / sliced_threads=0 / nr=0 / decimate=1 / interlaced=0 / bluray_compat=0 / constrained_intra=0 / bframes=9 / b_pyramid=2 / b_adapt=2 / b_bias=0 / direct=3 / weightb=1 / open_gop=0 / weightp=2 / keyint=230 / keyint_min=23 / scenecut=40 / intra_refresh=0 / rc_lookahead=70 / rc=crf / mbtree=0 / crf=16.5 / qcomp=0.65 / qpmin=0 / qpmax=69 / qpstep=4 / vbv_maxrate=62500 / vbv_bufsize=78125 / crf_max=0.0 / nal_hrd=none / filler=0 / ip_ratio=1.25 / pb_ratio=1.10 / aq=2:0.80
Language : English
Default : Yes
Forced : No

Audio #1
ID : 2
Format : DTS
Format/Info : Digital Theater Systems
Codec ID : A_DTS
Duration : 1 h 48 min
Bit rate mode : Constant
Bit rate : 1 509 kb/s
Channel(s) : 6 channels
Channel positions : Front: L C R, Side: L R, LFE
Sampling rate : 48.0 kHz
Frame rate : 93.750 FPS (512 SPF)
Bit depth : 24 bits
Compression mode : Lossy
Stream size : 1.15 GiB (6%)
Title : DUB [Krat11]
Language : Russian
Default : Yes
Forced : No

Audio #2
ID : 3
Format : DTS
Format/Info : Digital Theater Systems
Codec ID : A_DTS
Duration : 1 h 48 min
Bit rate mode : Constant
Bit rate : 1 509 kb/s
Channel(s) : 6 channels
Channel positions : Front: L C R, Side: L R, LFE
Sampling rate : 48.0 kHz
Frame rate : 93.750 FPS (512 SPF)
Bit depth : 24 bits
Compression mode : Lossy
Stream size : 1.15 GiB (6%)
Title : MVO Kinomaniya
Default : No
Forced : No

Audio #3
ID : 4
Format : DTS
Format/Info : Digital Theater Systems
Codec ID : A_DTS
Duration : 1 h 48 min
Bit rate mode : Constant
Bit rate : 1 509 kb/s
Channel(s) : 6 channels
Channel positions : Front: L C R, Side: L R, LFE
Sampling rate : 48.0 kHz
Frame rate : 93.750 FPS (512 SPF)
Bit depth : 24 bits
Compression mode : Lossy
Stream size : 1.15 GiB (6%)
Title : AVO Gavrilov
Language : Russian
Default : No
Forced : No

Audio #4
ID : 5
Format : DTS
Format/Info : Digital Theater Systems
Codec ID : A_DTS
Duration : 1 h 48 min
Bit rate mode : Constant
Bit rate : 1 509 kb/s
Channel(s) : 6 channels
Channel positions : Front: L C R, Side: L R, LFE
Sampling rate : 48.0 kHz
Frame rate : 93.750 FPS (512 SPF)
Bit depth : 24 bits
Compression mode : Lossy
Stream size : 1.15 GiB (6%)
Language : English
Default : No
Forced : No

Text
ID : 6
Format : UTF-8
Codec ID : S_TEXT/UTF8
Codec ID/Info : UTF-8 Plain Text
Duration : 1 h 25 min
Bit rate : 1 b/s
Count of elements : 18
Stream size : 989 Bytes (0%)
Title : forced
Language : Russian
Default : Yes
Forced : No

Menu
00:00:00.000 : en:00:00:00.000
00:02:18.347 : en:00:02:18.347
00:04:06.204 : en:00:04:06.204
00:08:36.141 : en:00:08:36.141
00:12:59.654 : en:00:12:59.654
00:15:41.607 : en:00:15:41.607
00:19:06.437 : en:00:19:06.437
00:23:22.109 : en:00:23:22.109
00:26:21.705 : en:00:26:21.705
00:28:43.889 : en:00:28:43.889
00:30:39.421 : en:00:30:39.421
00:33:35.805 : en:00:33:35.805
00:35:48.897 : en:00:35:48.897
00:41:39.956 : en:00:41:39.956
00:44:34.005 : en:00:44:34.005
00:49:33.012 : en:00:49:33.012
00:53:54.815 : en:00:53:54.815
00:57:45.378 : en:00:57:45.378
01:03:10.328 : en:01:03:10.328
01:05:25.922 : en:01:05:25.922
01:08:36.153 : en:01:08:36.153
01:11:59.648 : en:01:11:59.648
01:13:36.996 : en:01:13:36.996
01:15:41.704 : en:01:15:41.704
01:18:50.517 : en:01:18:50.517
01:21:48.612 : en:01:21:48.612
01:24:44.955 : en:01:24:44.955
01:28:21.546 : en:01:28:21.546
01:29:41.292 : en:01:29:41.292
01:33:16.591 : en:01:33:16.591
01:36:01.589 : en:01:36:01.589
01:36:35.623 : en:01:36:35.623


_________________
Проголосуй за трекер Открытый торрент трекер - RUS-MEDIA.ORG

Проголосуй Открытый торрент трекер - RUS-MEDIA.ORG


Вернуться к началу
 Профиль Отправить личное сообщение  
 
   Похожие торренты   Автор   Торрент   Размер 
В этой теме нет новых непрочитанных сообщений. Чужой против Хищника / AVP: Alien vs. Predator [Ужасы, фантастика, боевик, 2004] BDRip 1080p, Dub [Unrated]

salma3

0 | 0

15.06 ГБ

В этой теме нет новых непрочитанных сообщений. Чужой против Хищника / AVP: Alien vs. Predator [Ужасы, фантастика, боевик, 2004] BDRip 1080p, Dub [Theatrical Cut]

salma3

0 | 0

12.65 ГБ

В этой теме нет новых непрочитанных сообщений. Чужой против Хищника / Alien vs. Predator [Фантастика, боевик, приключения, 2004] BDRip-HEVC 1080p, Dub [Расширенная версия]

salma3

39 | 6

5.41 ГБ

В этой теме нет новых непрочитанных сообщений. Чужой против Хищника / Alien vs. Predator [Фантастика, боевик, приключения, 2004] WEB-DLRip-AVC, Dub [Open Matte]

salma3

0 | 0

3.61 ГБ

В этой теме нет новых непрочитанных сообщений. Чужой против Хищника / AVP: Alien vs. Predator [Фантастика, боевик, триллер, 2004] WEB-DLRip-AVC, Dub [Open Matte] [Theatrical Cut]

salma3

0 | 0

745.69 МБ

В этой теме нет новых непрочитанных сообщений. Чужой против Хищника : Возвращение / AVP Redemption (боевики, ужасы, фантастика, короткометражный, 2015) WEB-DLRip |L1

marya111

320 | 3

230.21 МБ

В этой теме нет новых непрочитанных сообщений. Чужой 3 / Alien 3 [Ужасы, фантастика, боевик, 1992] BDRip-HEVC 1080p, Dub [Special Edition]

salma3

16 | 4

8.08 ГБ


Начать новую тему Ответить на тему  [ 1 сообщение ] 




Для Мосгорсуда, Роскомнадзора и рекламодателей:: mosgorsud-torrent[собачка]yandex.ru
cron