COVID-19 - Последняя информация о коронавирусе на сайте Минздрава




Торрент файл
скачать торрент магнет ссылка Добавлен: 08 апр 2018, 22:10
Размер: 11.64 ГБ
Сидеров: 0
Личеров: 0
Статус: (salma3)
Автор

СообщениеДобавлено: 08 апр 2018, 22:10 

Не в сети
Супермодератор
Аватара пользователя
Дата регистрации:
15 фев 2012, 16:44
Возраст: 31
Спасибо: 8273 / 2148
Сообщения: 96475
Год выпуска: 2007
Выпущено: США, Канада
Жанр: Комедия, приключения, семейный
Режиссер: Тодд Холлэнд

В ролях: Джош Хатчерсон, Брюс Гринвуд, Билл Нанн, Скотч Эллис Лори, Дэш Майок, Мейте Гарсиа, Тедди Сирс, Роэн Снайдер

О фильме:
Пес Рекс снимается в кино и рекламе, обладает уникальной прыгучестью, носит ошейник с бриллиантами, к его услугам — целый собачий гарем. Словом, живет псина, как и положено звезде Голливуда. Однако вся эта сладкая жизнь внезапно сменяется тяготами и лишениями: во время съемок рекламного ролика Рекс, по недосмотру безответственного персонала, пропадает. Он бродит по улицам города, для жителей которого пес-звезда ничем не отличается от прочих бродячих собак. В конце концов, Рексу удается найти пристанище на обветшалой пожарной станции и подружиться с 12-летним Шейном...

Продолжительность: 01:51:11
Перевод: Профессиональный многоголосый
Субтитры: Русские, английские
Навигация по главам: Есть

Файл
Качество: WEB-DL 1080p
Видео: MPEG-4 AVC, 13,4 Мбит/сек, 1920x1080, 23,976 кадра/сек
Аудио #1: AC3, 6 ch, 448 Кбит/сек | Русский, профессиональный (многоголосый закадровый) ТНТ
Аудио #2: AC3, 2 ch, 192 Кбит/сек | Русский, профессиональный (многоголосый закадровый) R5, ФОКС
Аудио #3: EAC3, 6 ch, 640 Кбит/сек | Английский, оригинал




Общее
Уникальный идентификатор : 187579696130521486401270869655093156374 (0x8D1E890E3FEB8EE680D5834874A69A16)
Полное имя : Пожарный.пес.2007.WEB-DL.1080p.mkv
Формат : Matroska
Версия формата : Version 2
Размер файла : 11,6 Гбайт
Продолжительность : 1 ч. 51 м.
Режим общего битрейта : Переменный
Общий поток : 15,0 Мбит/сек
Дата кодирования : UTC 2018-04-07 09:30:36
Программа кодирования : mkvmerge v5.8.0 ('No Sleep / Pillow') built on Sep 2 2012 15:37:04
Библиотека кодирования : libebml v1.2.3 + libmatroska v1.3.0

Видео
Идентификатор : 1
Формат : AVC
Формат/Информация : Advanced Video Codec
Профиль формата : High@L4
Настройки формата : CABAC / 4 Ref Frames
Параметр CABAC формата : Да
Параметр RefFrames формата : 4 кадра
Идентификатор кодека : V_MPEG4/ISO/AVC
Продолжительность : 1 ч. 51 м.
Вид битрейта : Переменный
Битрейт : 13,4 Мбит/сек
Максимальный битрейт : 15,0 Мбит/сек
Ширина : 1920 пикселей
Высота : 1080 пикселей
Соотношение сторон : 16:9
Режим частоты кадров : Постоянный
Частота кадров : 23,976 (24000/1001) кадра/сек
Цветовое пространство : YUV
Субдискретизация насыщенности : 4:2:0
Битовая глубина : 8 бит
Тип развёртки : Прогрессивная
Бит/(Пиксели*Кадры) : 0.270
Размер потока : 10,4 Гбайт (89%)
Библиотека кодирования : x264 core 148 r2623 d5b2374
Настройки программы : cabac=1 / ref=4 / deblock=1:-1:-1 / analyse=0x3:0x133 / me=umh / subme=9 / psy=1 / psy_rd=1.00:0.15 / mixed_ref=1 / me_range=24 / chroma_me=1 / trellis=2 / 8x8dct=1 / cqm=0 / deadzone=21,11 / fast_pskip=1 / chroma_qp_offset=-3 / threads=34 / lookahead_threads=5 / sliced_threads=0 / nr=150 / decimate=1 / interlaced=0 / bluray_compat=0 / constrained_intra=0 / bframes=8 / b_pyramid=2 / b_adapt=2 / b_bias=0 / direct=3 / weightb=1 / open_gop=0 / weightp=2 / keyint=120 / keyint_min=61 / scenecut=0 / intra_refresh=0 / rc_lookahead=120 / rc=crf / mbtree=1 / crf=18.0 / qcomp=0.60 / qpmin=0 / qpmax=69 / qpstep=4 / vbv_maxrate=15000 / vbv_bufsize=31250 / crf_max=0.0 / nal_hrd=vbr / filler=0 / ip_ratio=1.40 / aq=3:1.00
Язык : English
Default : Да
Forced : Нет
Цветовой диапазон : Limited
Основные цвета : BT.709
Характеристики трансфера : BT.709
Коэффициенты матрицы : BT.709

Аудио #1
Идентификатор : 2
Формат : AC-3
Формат/Информация : Audio Coding 3
Идентификатор кодека : A_AC3
Продолжительность : 1 ч. 51 м.
Вид битрейта : Постоянный
Битрейт : 448 Кбит/сек
Каналы : 6 каналов
Расположение каналов : Front: L C R, Side: L R, LFE
Частота : 48,0 КГц
Частота кадров : 31,250 кадров/сек (1536 SPF)
Битовая глубина : 16 бит
Метод сжатия : С потерями
Размер потока : 356 Мбайт (3%)
Заголовок : MVO | ТНТ
Язык : Russian
По умолчанию : Да
Принудительно : Нет

Аудио #2
Идентификатор : 3
Формат : AC-3
Формат/Информация : Audio Coding 3
Идентификатор кодека : A_AC3
Продолжительность : 1 ч. 51 м.
Вид битрейта : Постоянный
Битрейт : 192 Кбит/сек
Каналы : 2 канала
Расположение каналов : Front: L R
Частота : 48,0 КГц
Частота кадров : 31,250 кадров/сек (1536 SPF)
Битовая глубина : 16 бит
Метод сжатия : С потерями
Размер потока : 153 Мбайт (1%)
Заголовок : MVO | R5, ФОКС
Язык : Russian
По умолчанию : Нет
Принудительно : Нет

Аудио #3
Идентификатор : 4
Формат : E-AC-3
Формат/Информация : Enhanced Audio Coding 3
Идентификатор кодека : A_EAC3
Продолжительность : 1 ч. 51 м.
Вид битрейта : Постоянный
Битрейт : 640 Кбит/сек
Каналы : 6 каналов
Расположение каналов : Front: L C R, Side: L R, LFE
Частота : 48,0 КГц
Частота кадров : 187,500 кадров/сек (256 SPF)
Метод сжатия : С потерями
Размер потока : 509 Мбайт (4%)
Заголовок : Original
Язык : English
По умолчанию : Нет
Принудительно : Нет

Текст #1
Идентификатор : 5
Формат : UTF-8
Идентификатор кодека : S_TEXT/UTF8
Идентификатор кодека/Информация : UTF-8 Plain Text
Язык : Russian
По умолчанию : Нет
Принудительно : Нет

Текст #2
Идентификатор : 6
Формат : UTF-8
Идентификатор кодека : S_TEXT/UTF8
Идентификатор кодека/Информация : UTF-8 Plain Text
Язык : English
По умолчанию : Нет
Принудительно : Нет

Текст #3
Идентификатор : 7
Формат : UTF-8
Идентификатор кодека : S_TEXT/UTF8
Идентификатор кодека/Информация : UTF-8 Plain Text
Заголовок : SDH
Язык : English
По умолчанию : Нет
Принудительно : Нет

Меню
00:00:00.000 : en:Temperamental Star
00:06:22.224 : en:Playing Hooky
00:11:45.224 : en:Dangerous Rescue
00:19:49.224 : en:Dog Duty
00:25:48.224 : en:This is My House
00:28:59.224 : en:Loss of a Legend
00:33:14.224 : en:Surprise Entry
00:41:10.224 : en:Responsibility
00:45:05.224 : en:Lifesaving Rescue
00:55:28.224 : en:Rest in Peace
00:58:11.224 : en:Firehouse Dog
01:01:34.224 : en:Real Strength
01:09:06.224 : en:Trey Claims His Dog
01:15:16.224 : en:Underhanded Plan
01:17:41.224 : en:True Calling
01:20:59.224 : en:Decoy Fire
01:24:31.224 : en:Firebug
01:27:19.224 : en:Dewey to the Rescue
01:33:06.224 : en:Saving Shane
01:35:01.224 : en:Justice
01:36:37.224 : en:Award Ceremony
01:38:12.224 : en:Wonder Dog
01:40:05.224 : en:The New Dogpatch
01:42:42.224 : en:My Dog/End Titles

Исходник видео WEB-DL Amazon

Сборка:


_________________
Проголосуй за трекер Открытый торрент трекер - RUS-MEDIA.ORG

Проголосуй Открытый торрент трекер - RUS-MEDIA.ORG


Скачать книги и аудио книги через торрент


Вернуться к началу
 Профиль Отправить личное сообщение  
 
   Похожие торренты   Автор   Торрент   Размер 
В этой теме нет новых непрочитанных сообщений. Мой пес Бинго / Bingo [Комедия, приключения, семейный, 1991] WEB-DL 1080p, Mvo

salma3

0 | 0

9.11 ГБ

В этой теме нет новых непрочитанных сообщений. Вдали от дома: Приключения жёлтого пса / Far from Home: The Adventures of Yellow Dog [Приключения, семейный, 1995] WEB-DL 1080p, Mvo

salma3

0 | 0

7.98 ГБ

В этой теме нет новых непрочитанных сообщений. Чёрный пёс / BLACK DOG (Серия 1-4 из 4)( Александр Франскевич-Лайе, Владимир Янковский) [2018, Боевик, драма , WEB-DLRip-AVC][1080p][DD5.1]

Враг Нароода

0 | 0

7.49 ГБ

В этой теме нет новых непрочитанных сообщений. Невероятные приключения янки в Африке / Yankee Zulu [Комедия, приключения, семейный, 1993] WEB-DL 1080p, Mvo

salma3

0 | 0

9.1 ГБ

В этой теме нет новых непрочитанных сообщений. Больше чем жизнь / Larger Than Life [Комедия, приключения, семейный, 1996] WEB-DL 1080p, Mvo

salma3

0 | 1

9.34 ГБ

В этой теме нет новых непрочитанных сообщений. Цепной пёс / Bullet Head [триллер, драма, криминал, 2017] WEB-DL 1080p, Mvo

salma3

0 | 10

3.05 ГБ

В этой теме нет новых непрочитанных сообщений. Парень из Голливуда, или Необыкновенные приключения Вени Везунчика [Комедия, приключения, семейный, 2018] WEB-DL 1080p [iTunes]

salma3

0 | 0

3.5 ГБ


Начать новую тему Ответить на тему  [ 1 сообщение ] 




Для Мосгорсуда, Роскомнадзора и рекламодателей:: rstracker[собака]yandex.ru
cron