Торрент файл
скачать торрент магнет ссылка Добавлен: 07 апр 2018, 11:10
Размер: 26.49 ГБ
Сидеров: 0
Личеров: 0
Статус: (salma3)
Автор

СообщениеДобавлено: 07 апр 2018, 11:10 

В сети
Супермодератор
Аватара пользователя
Дата регистрации:
15 фев 2012, 16:44
Возраст: 28
Спасибо: 7203 / 2147
Сообщения: 64964
Год выхода: 2017
Жанр: Фантастика, боевик, приключения
Режиссер: Дин Израэлайт

В ролях: Дакре Монтгомери, Наоми Скотт, АрДжей Сайлер, Луди Линь, Бекки Джи, Элизабет Бэнкс, Брайан Крэнстон, Билл Хэйдер, Мэтт Шайвли, Коуди Кирсли

О фильме:
Пять обычных старшеклассников узнают, что их маленький город Энджел Гроув и весь мир находятся на грани уничтожения инопланетной угрозой. Избранные судьбой наши герои быстро понимают, что они единственные, кто может спасти планету.



Страна: Канада, США
Продолжительность: 2:03:58
Перевод: Дублированный, авторский

Файл
Кодек: MPEG-4 AVC
Качество: BDRemux 1080p
Видео: 18980 Кбит/с, 1920x1080, 23.976 Кадр/с
Аудио 1: Русский DTS 5.1 768 kbps - Дубляж
Аудио 2: Русский AC3 5.1 448 kbps - Дубляж
Аудио 3: Русский DTS-HD MA 7.1 5442 kbps - Авторский (Володарский)
Аудио 4: Английский TrueHD 7.1 4882 kbps - Оригинал
Субтитры: Русские, английские

Общее
Уникальный идентификатор : 213892278989756201396922349455911902555 (0xA0EA278D2DA5A049B9946AC974B75D5B)
Полное имя : D:\РЕМУКС!!!!!\Могучие рейнджеры.BDRemux.mkv
Формат : Matroska
Версия формата : Version 4 / Version 2
Размер файла : 26,5 Гбайт
Продолжительность : 2 ч. 3 м.
Режим общего битрейта : Переменный
Общий поток : 30,6 Мбит/сек
Название фильма : Могучие рейнджеры.BDRemux.thx:SPOMOPS
Дата кодирования : UTC 2018-04-06 16:32:04
Программа кодирования : mkvmerge v8.3.0 ('Over the Horizon') 64bit
Библиотека кодирования : libebml v1.3.1 + libmatroska v1.4.2

Видео
Идентификатор : 1
Формат : AVC
Формат/Информация : Advanced Video Codec
Профиль формата : High@L4.1
Настройки формата : CABAC / 4 Ref Frames
Параметр CABAC формата : Да
Параметр RefFrames формата : 4 кадра
Идентификатор кодека : V_MPEG4/ISO/AVC
Продолжительность : 2 ч. 3 м.
Вид битрейта : Переменный
Битрейт : 19,0 Мбит/сек
Максимальный битрейт : 37,0 Мбит/сек
Ширина : 1920 пикселей
Высота : 1080 пикселей
Соотношение сторон : 16:9
Режим частоты кадров : Постоянный
Частота кадров : 23,976 (24000/1001) кадра/сек
Цветовое пространство : YUV
Субдискретизация насыщенности : 4:2:0
Битовая глубина : 8 бит
Тип развёртки : Прогрессивная
Бит/(Пиксели*Кадры) : 0.382
Размер потока : 16,4 Гбайт (62%)
Язык : English
Default : Да
Forced : Нет

Аудио #1
Идентификатор : 2
Формат : DTS
Формат/Информация : Digital Theater Systems
Идентификатор кодека : A_DTS
Продолжительность : 2 ч. 3 м.
Вид битрейта : Постоянный
Битрейт : 768 Кбит/сек
Каналы : 6 каналов
Расположение каналов : Front: L C R, Side: L R, LFE
Частота : 48,0 КГц
Частота кадров : 93,750 кадра/сек (512 SPF)
Битовая глубина : 16 бит
Метод сжатия : С потерями
Размер потока : 681 Мбайт (3%)
Заголовок : Русский DTS - Дубляж
Язык : Russian
Default : Да
Forced : Нет

Аудио #2
Идентификатор : 3
Формат : AC-3
Формат/Информация : Audio Coding 3
Идентификатор кодека : A_AC3
Продолжительность : 2 ч. 3 м.
Вид битрейта : Постоянный
Битрейт : 448 Кбит/сек
Каналы : 6 каналов
Расположение каналов : Front: L C R, Side: L R, LFE
Частота : 48,0 КГц
Частота кадров : 31,250 кадров/сек (1536 SPF)
Битовая глубина : 16 бит
Метод сжатия : С потерями
Размер потока : 397 Мбайт (1%)
Заголовок : Русский ас3 - Дубляж
Язык : Russian
ServiceKind/String : Complete Main
Default : Нет
Forced : Нет

Аудио #3
Идентификатор : 4
Формат : DTS
Формат/Информация : Digital Theater Systems
Профиль формата : MA / Core
Идентификатор кодека : A_DTS
Продолжительность : 2 ч. 3 м.
Вид битрейта : Переменный / Постоянный
Битрейт : 5442 Кбит/сек / 1509 Кбит/сек
Каналы : 8 каналов / 6 каналов
Расположение каналов : Front: L C R, Side: L R, Back: L R, LFE / Front: L C R, Side: L R, LFE
Частота : 48,0 КГц
Частота кадров : 93,750 кадра/сек (512 SPF)
Битовая глубина : 24 бит
Метод сжатия : Без потерь / Lossy
Размер потока : 4,71 Гбайт (18%)
Заголовок : Русский DTS-HD МА - АП (Володарский)
Язык : Russian
Default : Нет
Forced : Нет

Аудио #4
Идентификатор : 5
Формат : TrueHD
Профиль формата : TrueHD+Atmos / TrueHD
Идентификатор кодека : A_TRUEHD
Продолжительность : 2 ч. 3 м.
Вид битрейта : Переменный
Битрейт : 4882 Кбит/сек
Максимальный битрейт : 7578 Кбит/сек
Каналы : Object Based / 8 каналов
Расположение каналов : Object Based / Front: L C R, Side: L R, Back: L R, LFE
Частота : / 48,0 КГц
Частота кадров : 1200,000 кадров/сек (40 SPF)
Метод сжатия : Без потерь
Размер потока : 4,23 Гбайт (16%)
Заголовок : Английский TrueHD - Оригинал
Язык : English
Default : Нет
Forced : Нет

Текст #1
Идентификатор : 6
Формат : UTF-8
Идентификатор кодека : S_TEXT/UTF8
Идентификатор кодека/Информация : UTF-8 Plain Text
Продолжительность : 1 ч. 51 м.
Битрейт : 2 бит/сек
ElementCount : 42
Размер потока : 1,90 Кбайт (0%)
Заголовок : Русские - форс.
Язык : Russian
Default : Да
Forced : Нет

Текст #2
Идентификатор : 7
Формат : UTF-8
Идентификатор кодека : S_TEXT/UTF8
Идентификатор кодека/Информация : UTF-8 Plain Text
Продолжительность : 1 ч. 55 м.
Битрейт : 99 бит/сек
ElementCount : 1660
Размер потока : 83,8 Кбайт (0%)
Заголовок : Русские
Язык : Russian
Default : Нет
Forced : Нет

Текст #3
Идентификатор : 8
Формат : UTF-8
Идентификатор кодека : S_TEXT/UTF8
Идентификатор кодека/Информация : UTF-8 Plain Text
Продолжительность : 1 ч. 50 м.
Битрейт : 1 бит/сек
ElementCount : 35
Размер потока : 1018 байт (0%)
Заголовок : Английские - форс.
Язык : English
Default : Нет
Forced : Нет

Текст #4
Идентификатор : 9
Формат : UTF-8
Идентификатор кодека : S_TEXT/UTF8
Идентификатор кодека/Информация : UTF-8 Plain Text
Продолжительность : 1 ч. 52 м.
Битрейт : 56 бит/сек
ElementCount : 1624
Размер потока : 46,8 Кбайт (0%)
Заголовок : Английские
Язык : English
Default : Нет
Forced : Нет

Текст #5
Идентификатор : 10
Формат : UTF-8
Идентификатор кодека : S_TEXT/UTF8
Идентификатор кодека/Информация : UTF-8 Plain Text
Продолжительность : 1 ч. 55 м.
Битрейт : 67 бит/сек
ElementCount : 1890
Размер потока : 56,9 Кбайт (0%)
Заголовок : Английские - SDH
Язык : English
Default : Нет
Forced : Нет

Текст #6
Идентификатор : 11
Формат : UTF-8
Идентификатор кодека : S_TEXT/UTF8
Идентификатор кодека/Информация : UTF-8 Plain Text
Продолжительность : 1 ч. 55 м.
Битрейт : 93 бит/сек
ElementCount : 1890
Размер потока : 78,6 Кбайт (0%)
Заголовок : Английские - SDH (Colored)
Язык : Russian
Default : Нет
Forced : Нет

Меню
00:00:00.000 : en:00:00:00.000
00:07:00.253 : en:00:07:00.253
00:13:45.241 : en:00:13:45.241
00:18:57.720 : en:00:18:57.720
00:25:49.590 : en:00:25:49.590
00:31:17.125 : en:00:31:17.125
00:38:24.761 : en:00:38:24.761
00:50:49.046 : en:00:50:49.046
01:00:00.221 : en:01:00:00.221
01:08:09.877 : en:01:08:09.877
01:17:06.747 : en:01:17:06.747
01:24:41.743 : en:01:24:41.743
01:30:45.023 : en:01:30:45.023
01:34:18.861 : en:01:34:18.861
01:44:32.933 : en:01:44:32.933
01:51:46.158 : en:01:51:46.158


_________________
Проголосуй за трекер Открытый торрент трекер - RUS-MEDIA.ORG

Проголосуй Открытый торрент трекер - RUS-MEDIA.ORG


Вернуться к началу
 Профиль Отправить личное сообщение  
 
   Похожие торренты   Автор   Торрент   Размер 
В этой теме нет новых непрочитанных сообщений. Могучие рейнджеры / Power Rangers [Фантастика, боевик, приключения, 2017] BDRemux 1080p, Dub [Лицензия]

salma3

16 | 7

21.94 ГБ

В этой теме нет новых непрочитанных сообщений. Могучие рейнджеры / Power Rangers [фантастика, боевик, приключения, 2017] UHD BDRemux 2160p, Dub [4K] [iTunes]

salma3

26 | 38

41.38 ГБ

В этой теме нет новых непрочитанных сообщений. Могучие рейнджеры / Power Rangers [фантастика, боевик, приключения, 2017] BDRip, Dub [Лицензия]

salma3

112 | 42

2.18 ГБ

В этой теме нет новых непрочитанных сообщений. Могучие рейнджеры / Power Rangers [Фантастика, боевик, приключения, 2017] BDRip 720p, Dub [Лицензия]

salma3

24 | 3

5.54 ГБ

В этой теме нет новых непрочитанных сообщений. Могучие рейнджеры / Power Rangers [фантастика, боевик, приключения, 2017] WEB-DLRip, Mvo

salma3

2889 | 1148

2.05 ГБ

В этой теме нет новых непрочитанных сообщений. Могучие рейнджеры / Power Rangers [Фантастика, боевик, приключения, 2017] DVD5, Dub

salma3

11 | 3

4.38 ГБ

В этой теме нет новых непрочитанных сообщений. Могучие рейнджеры / Power Rangers [фантастика, боевик, приключения, 2017] BDRip-AVC, Dub [iTunes]

salma3

1417 | 167

2.89 ГБ


Начать новую тему Ответить на тему  [ 1 сообщение ] 




Для Мосгорсуда, Роскомнадзора и рекламодателей:: mosgorsud-torrent[собачка]yandex.ru
cron