Торрент файл
скачать торрент магнет ссылка Добавлен: 06 апр 2018, 15:20
Размер: 12.05 ГБ
Сидеров: 0
Личеров: 1
Статус: (salma3)
Автор

СообщениеДобавлено: 06 апр 2018, 15:20 

Не в сети
Супермодератор
Аватара пользователя
Дата регистрации:
15 фев 2012, 16:44
Возраст: 29
Спасибо: 7332 / 2147
Сообщения: 73912
Год выхода: 1999
Жанр: Триллер, драма, мелодрама
Режиссер: Спайк Ли

В ролях: Джон Легуизамо, Эдриан Броуди, Мира Сорвино, Дженнифер Эспозито, Майкл Рисполи, Саверио Гуерра, Брайан Тарантина, Аль Палагония, Кен Гарито, Биби Нойуэрт, Майк Старр, Энтони ЛаПалья, Бен Газзара, Артур Дж. Наскарелла, Спайк Ли, Люсия Грилло, Эвандер Холлифилд

О фильме:
В истории Нью-Йорка лето 1977 года вошло как одно из самых жарких в изнуряющих. Казалось, будто 40-градусная жара готова расплавить асфальт и свести окончательно жителей Большого Яблока с ума. Но не жара стала главным врагом жителей громадного мегаполиса, а Дэвид Берковиц, серийный убийца, прозванный «Сыном Сэма». Казалось, что город медленно, но верно погружается в пучину безумия и массовой истерии, когда каждого человека, знакомого и, особенно, незнакомого можно было счесть убийцей. То лето Нью-Йорк запомнил навсегда...



Страна: США
Продолжительность: 02:21:52
Перевод: Профессиональный [двухголосый], авторский

Файл
Кодек: x.264
Качество: BDRip 1080p
Видео: MPEG-4 AVC, 1920x1040, ~10625 Kбит/с, 23.976 кадр/с
Аудио #1: Русский ( АС3, 6ch, 448 Кбит/с, 48.0 KHz) Профессиональный (двухголосый закадровый)
Аудио #2: Русский ( АС3, 6ch, 448 Кбит/с, 48.0 KHz) Авторский (одноголосый закадровый) [М. Яроцкий]
Аудио #3: Русский ( АС3, 2ch, 192 Кбит/с, 48.0 KHz) Авторский (одноголосый закадровый) [Юрий Сербин]
Аудио #4: Английский ( АС3, 6ch, 448 Кбит/с, 48.0 KHz)
Субтитры: pусские, английские

Источник: Summer.of.Sam.aka.The.Son.of.Sam.1999.1080p.BluRay.X264-AMIABLE
General
Unique ID : 190793061679787217092003462700387910821 (0x8F8968358BB1FB469E7623552B25C4A5)
Complete name : Summer.Of.Sam.1999.BDRip.1080p.mkv
Format : Matroska
Format version : Version 4 / Version 2
File size : 12.0 GiB
Duration : 2 h 21 min
Overall bit rate : 12.2 Mb/s
Encoded date : UTC 2018-04-05 19:49:32
Writing application : mkvmerge v7.1.0 ('Good Love') 64bit built on Jul 27 2014 13:06:55
Writing library : libebml v1.3.0 + libmatroska v1.4.1

Video
ID : 1
Format : AVC
Format/Info : Advanced Video Codec
Format profile : High@L4.1
Format settings : CABAC / 4 Ref Frames
Format settings, CABAC : Yes
Format settings, ReFrames : 4 frames
Codec ID : V_MPEG4/ISO/AVC
Duration : 2 h 21 min
Bit rate : 10.6 Mb/s
Width : 1 920 pixels
Height : 1 040 pixels
Display aspect ratio : 1.85:1
Frame rate mode : Constant
Frame rate : 23.976 (24000/1001) FPS
Color space : YUV
Chroma subsampling : 4:2:0
Bit depth : 8 bits
Scan type : Progressive
Bits/(Pixel*Frame) : 0.222
Stream size : 10.5 GiB (87%)
Writing library : x264 core 142 r2431 ac76440
Encoding settings : cabac=1 / ref=4 / deblock=1:-3:-3 / analyse=0x3:0x113 / me=umh / subme=8 / psy=1 / psy_rd=1.00:0.00 / mixed_ref=1 / me_range=16 / chroma_me=1 / trellis=1 / 8x8dct=1 / cqm=0 / deadzone=21,11 / fast_pskip=1 / chroma_qp_offset=-2 / threads=12 / lookahead_threads=2 / sliced_threads=0 / nr=0 / decimate=1 / interlaced=0 / bluray_compat=0 / constrained_intra=0 / bframes=3 / b_pyramid=2 / b_adapt=2 / b_bias=0 / direct=3 / weightb=1 / open_gop=0 / weightp=2 / keyint=240 / keyint_min=24 / scenecut=40 / intra_refresh=0 / rc_lookahead=50 / rc=2pass / mbtree=1 / bitrate=10625 / ratetol=1.0 / qcomp=0.60 / qpmin=0 / qpmax=69 / qpstep=4 / cplxblur=20.0 / qblur=0.5 / ip_ratio=1.40 / aq=1:1.00
Language : English
Default : Yes
Forced : No

Audio #1
ID : 2
Format : AC-3
Format/Info : Audio Coding 3
Codec ID : A_AC3
Duration : 2 h 21 min
Bit rate mode : Constant
Bit rate : 448 kb/s
Channel(s) : 6 channels
Channel positions : Front: L C R, Side: L R, LFE
Sampling rate : 48.0 kHz
Frame rate : 31.250 FPS (1536 SPF)
Bit depth : 16 bits
Compression mode : Lossy
Stream size : 455 MiB (4%)
Title : Профессиональный (двухголосый закадровый)
Language : Russian
Service kind : Complete Main
Default : Yes
Forced : No

Audio #2
ID : 3
Format : AC-3
Format/Info : Audio Coding 3
Codec ID : A_AC3
Duration : 2 h 21 min
Bit rate mode : Constant
Bit rate : 448 kb/s
Channel(s) : 6 channels
Channel positions : Front: L C R, Side: L R, LFE
Sampling rate : 48.0 kHz
Frame rate : 31.250 FPS (1536 SPF)
Bit depth : 16 bits
Compression mode : Lossy
Stream size : 455 MiB (4%)
Title : Авторский (одноголосый закадровый) М. Яроцкий
Language : Russian
Service kind : Complete Main
Default : No
Forced : No

Audio #3
ID : 4
Format : AC-3
Format/Info : Audio Coding 3
Codec ID : A_AC3
Duration : 2 h 21 min
Bit rate mode : Constant
Bit rate : 192 kb/s
Channel(s) : 2 channels
Channel positions : Front: L R
Sampling rate : 48.0 kHz
Frame rate : 31.250 FPS (1536 SPF)
Bit depth : 16 bits
Compression mode : Lossy
Stream size : 195 MiB (2%)
Title : Авторский (одноголосый закадровый) Юрий Сербин
Language : Russian
Service kind : Complete Main
Default : No
Forced : No

Audio #4
ID : 5
Format : AC-3
Format/Info : Audio Coding 3
Codec ID : A_AC3
Duration : 2 h 21 min
Bit rate mode : Constant
Bit rate : 448 kb/s
Channel(s) : 6 channels
Channel positions : Front: L C R, Side: L R, LFE
Sampling rate : 48.0 kHz
Frame rate : 31.250 FPS (1536 SPF)
Bit depth : 16 bits
Compression mode : Lossy
Stream size : 455 MiB (4%)
Language : English
Service kind : Complete Main
Default : No
Forced : No

Text #1
ID : 6
Format : UTF-8
Codec ID : S_TEXT/UTF8
Codec ID/Info : UTF-8 Plain Text
Duration : 2 h 17 min
Bit rate : 112 b/s
Count of elements : 1476
Stream size : 113 KiB (0%)
Language : Russian
Default : No
Forced : No

Text #2
ID : 7
Format : UTF-8
Codec ID : S_TEXT/UTF8
Codec ID/Info : UTF-8 Plain Text
Duration : 2 h 18 min
Bit rate : 80 b/s
Count of elements : 2369
Stream size : 81.6 KiB (0%)
Title : SDH
Language : English
Default : No
Forced : No

Text #3
ID : 8
Format : UTF-8
Codec ID : S_TEXT/UTF8
Codec ID/Info : UTF-8 Plain Text
Duration : 2 h 17 min
Bit rate : 76 b/s
Count of elements : 2251
Stream size : 77.5 KiB (0%)
Language : English
Default : No
Forced : No

Menu
00:00:00.000 : en:00:00:00.000
00:12:24.452 : en:00:12:24.452
00:23:43.589 : en:00:23:43.589
00:35:44.684 : en:00:35:44.684
00:48:11.472 : en:00:48:11.472
00:59:00.579 : en:00:59:00.579
01:08:07.500 : en:01:08:07.500
01:20:16.812 : en:01:20:16.812
01:30:48.401 : en:01:30:48.401
01:42:16.630 : en:01:42:16.630
01:58:18.967 : en:01:58:18.967
02:07:51.706 : en:02:07:51.706



_________________
Проголосуй за трекер Открытый торрент трекер - RUS-MEDIA.ORG

Проголосуй Открытый торрент трекер - RUS-MEDIA.ORG


Вернуться к началу
 Профиль Отправить личное сообщение  
 
   Похожие торренты   Автор   Торрент   Размер 
В этой теме нет новых непрочитанных сообщений. Кровавое лето Сэма / Summer of Sam [Триллер, драма, мелодрама, 1999] BDRip 720p, Dvo+Avo+Sub

salma3

23 | 23

13.67 ГБ

В этой теме нет новых непрочитанных сообщений. Лето 42-го / Summer of '42 [драма, мелодрама, комедия, 1971] BDRip-AVC, Dvo

salma3

4 | 2

745.13 МБ

В этой теме нет новых непрочитанных сообщений. Мое лето любви / My Summer of Love [Драма, мелодрама, 2004] WEB-DL 1080p, Dvo

salma3

14 | 1

8.21 ГБ

В этой теме нет новых непрочитанных сообщений. Лето 42-го / Summer of '42 [драма, мелодрама, комедия, 1971] BDRip 720p, Dvo

salma3

4 | 4

4.35 ГБ

В этой теме нет новых непрочитанных сообщений. Лето на восьмерых / Summer of 8 [Комедия, мелодрама, драма, 2016] WEBRip 1080p, Dvo

salma3

23 | 16

5.68 ГБ

В этой теме нет новых непрочитанных сообщений. Лето 84 / Summer of 84 [Ужасы, триллер, драма, 2018] WEB-DLRip 1080p, Dvo

salma3

0 | 0

3.73 ГБ

В этой теме нет новых непрочитанных сообщений. Лето на восьмерых / Summer of 8 [Комедия, мелодрама, драма, 2016] WEB-DLRip, Dvo

salma3

266 | 72

1.43 ГБ


Начать новую тему Ответить на тему  [ 1 сообщение ] 




Для Мосгорсуда, Роскомнадзора и рекламодателей:: mosgorsud-torrent[собачка]yandex.ru
cron