Торрент файл
скачать торрент магнет ссылка Добавлен: 05 апр 2018, 11:54
Размер: 8.22 ГБ
Сидеров: 0
Личеров: 0
Статус: (salma3)
Автор

СообщениеДобавлено: 05 апр 2018, 11:54 

Не в сети
Супермодератор
Аватара пользователя
Дата регистрации:
15 фев 2012, 16:44
Возраст: 29
Спасибо: 7339 / 2147
Сообщения: 75714
Год выхода: 1969
Жанр: фантастика, фэнтези, комедия
Режиссер: Эдуар Молинаро

В ролях: Луи де Фюнес, Микаэль Лонсдаль, Клоди Жансак, Бернар Алан, Анник Алан, Оливье Де Фюнес, Эльетт Демэ, Мартина Келли, Жак Легра, Паскаль Маззотти

О фильме:
Юбер де Тартас, богатый промышленник, живет счастливо со своей женой Эдме и сыном. Но внезапно странное событие потрясает их жизнь: на полюсе найден замороженный дедушка его жены, пролежавший в ледяной глыбе 65 лет. Его выводят из состояния зимней спячки, а чтобы не травмировать дедушкину психику, пытаются инсценировать вокруг него жизнь начала XX века. Но в их планы вмешиваются непредвиденные обстоятельства...



Страна: Франция, Италия
Студия: Gaumont International, Rizzoli Film S.p.a.
Продолжительность: 01:21:58
Перевод: Профессиональный (дублированный) Мосфильм + Профессиональный (многоголосый, закадровый) Cinema Prestige + Профессиональный (многоголосый, закадровый) Светла + Профессиональный (многоголосый, закадровый) РМГ + Профессиональный (многоголосый, закадровый) Петербург 5 канал

Файл
Качество: BDRip 1080p
Формат: Matroska
Видео: 1920x816 at 24.000 fps , x264@L4.1, ~12300 kbps avg
Аудио#1: Russian: 48 kHz, AC3, 2/0 (L,R) ch, ~192 kbps avg |Дубляж, Мосфильм|
Аудио#2: Russian: 48 kHz, AC3, 2/0 (L,R) ch, ~192 kbps avg |Многоголосый закадровый, Cinema Prestige|
Аудио#3: Russian: 48 kHz, AC3, 2/0 (L,R) ch, ~192 kbps avg |Многоголосый закадровый, Петербург 5 канал|
Аудио#4: Russian: 48 kHz, AC3, 2/0 (L,R) ch, ~192 kbps avg |Многоголосый закадровый, РМГ|
Аудио#5: Russian: 48 kHz, AC3, 2/0 (L,R) ch, ~192 kbps avg |Многоголосый закадровый, Светла|
Аудио#6: French: 48 kHz, DTS, 2/0 (L,R) ch, ~768 kbps avg
Субтитры: Russian, French

***Сохранены оригинальные главы как на Blu-ray.
***Релиз: msltel.

Общее
Уникальный идентификатор : 236614675268909244130688433504939898881 (0xB202542EBD4413AB953E6B5D8FB37801)
Полное имя : Замороженный.1969.BDRip.1080p by msltel.mkv
Формат : Matroska
Версия формата : Version 4 / Version 2
Размер файла : 8,22 Гбайт
Продолжительность : 1 ч. 21 м.
Общий поток : 14,4 Мбит/сек
Название фильма : Rip by msltel
Дата кодирования : UTC 2018-04-04 17:45:49
Программа кодирования : mkvmerge v8.2.0 ('World of Adventure') 64bit
Библиотека кодирования : libebml v1.3.1 + libmatroska v1.4.2

Видео
Идентификатор : 1
Формат : AVC
Формат/Информация : Advanced Video Codec
Профиль формата : High@L4.1
Параметр CABAC формата : Да
Параметр ReFrames формата : 4 кадра
Идентификатор кодека : V_MPEG4/ISO/AVC
Продолжительность : 1 ч. 21 м.
Битрейт : 12,3 Мбит/сек
Ширина : 1920 пикселей
Высота : 816 пикселей
Соотношение сторон : 2,35:1
Режим частоты кадров : Постоянный
Частота кадров : 24,000 кадра/сек
Цветовое пространство : YUV
Субдискретизация насыщенности : 4:2:0
Битовая глубина : 8 бит
Тип развёртки : Прогрессивная
Бит/(Пиксели*Кадры) : 0.328
Размер потока : 7,06 Гбайт (86%)
Библиотека кодирования : x264 core 146 r2538 121396c
Настройки программы : cabac=1 / ref=4 / deblock=1:-3:-2 / analyse=0x3:0x113 / me=umh / subme=11 / psy=1 / psy_rd=1.00:0.15 / mixed_ref=1 / me_range=32 / chroma_me=1 / trellis=2 / 8x8dct=1 / cqm=0 / deadzone=21,11 / fast_pskip=0 / chroma_qp_offset=-3 / threads=6 / lookahead_threads=1 / sliced_threads=0 / nr=0 / decimate=1 / interlaced=0 / bluray_compat=0 / constrained_intra=0 / bframes=14 / b_pyramid=2 / b_adapt=2 / b_bias=0 / direct=1 / weightb=1 / open_gop=0 / weightp=2 / keyint=230 / keyint_min=23 / scenecut=40 / intra_refresh=0 / rc_lookahead=40 / rc=crf / mbtree=0 / crf=20.7 / qcomp=0.60 / qpmin=0 / qpmax=69 / qpstep=4 / vbv_maxrate=62500 / vbv_bufsize=78125 / crf_max=0.0 / nal_hrd=none / filler=0 / ip_ratio=1.40 / pb_ratio=1.30 / aq=1:1.00
Язык : French
Default : Да
Forced : Нет

Аудио #1
Идентификатор : 2
Формат : AC-3
Формат/Информация : Audio Coding 3
Расширение режима : CM (complete main)
Параметр Endianness формата : Big
Идентификатор кодека : A_AC3
Продолжительность : 1 ч. 21 м.
Вид битрейта : Постоянный
Битрейт : 192 Кбит/сек
Каналы : 2 канала
Расположение каналов : Front: L R
Частота : 48,0 КГц
Битовая глубина : 16 бит
Метод сжатия : С потерями
Размер потока : 113 Мбайт (1%)
Заголовок : DUB Мосфильм
Язык : Russian
Default : Да
Forced : Нет

Аудио #2
Идентификатор : 3
Формат : AC-3
Формат/Информация : Audio Coding 3
Расширение режима : CM (complete main)
Параметр Endianness формата : Big
Идентификатор кодека : A_AC3
Продолжительность : 1 ч. 21 м.
Вид битрейта : Постоянный
Битрейт : 192 Кбит/сек
Каналы : 2 канала
Расположение каналов : Front: L R
Частота : 48,0 КГц
Битовая глубина : 16 бит
Метод сжатия : С потерями
Размер потока : 113 Мбайт (1%)
Заголовок : MVO Cinema Prestige
Язык : Russian
Default : Нет
Forced : Нет

Аудио #3
Идентификатор : 4
Формат : AC-3
Формат/Информация : Audio Coding 3
Расширение режима : CM (complete main)
Параметр Endianness формата : Big
Идентификатор кодека : A_AC3
Продолжительность : 1 ч. 21 м.
Вид битрейта : Постоянный
Битрейт : 192 Кбит/сек
Каналы : 2 канала
Расположение каналов : Front: L R
Частота : 48,0 КГц
Битовая глубина : 16 бит
Метод сжатия : С потерями
Размер потока : 113 Мбайт (1%)
Заголовок : MVO Спб 5 канал
Язык : Russian
Default : Нет
Forced : Нет

Аудио #4
Идентификатор : 5
Формат : AC-3
Формат/Информация : Audio Coding 3
Расширение режима : CM (complete main)
Параметр Endianness формата : Big
Идентификатор кодека : A_AC3
Продолжительность : 1 ч. 21 м.
Вид битрейта : Постоянный
Битрейт : 192 Кбит/сек
Каналы : 2 канала
Расположение каналов : Front: L R
Частота : 48,0 КГц
Битовая глубина : 16 бит
Метод сжатия : С потерями
Размер потока : 113 Мбайт (1%)
Заголовок : MVO РМГ
Язык : Russian
Default : Нет
Forced : Нет

Аудио #5
Идентификатор : 6
Формат : AC-3
Формат/Информация : Audio Coding 3
Расширение режима : CM (complete main)
Параметр Endianness формата : Big
Идентификатор кодека : A_AC3
Продолжительность : 1 ч. 21 м.
Вид битрейта : Постоянный
Битрейт : 192 Кбит/сек
Каналы : 2 канала
Расположение каналов : Front: L R
Частота : 48,0 КГц
Битовая глубина : 16 бит
Метод сжатия : С потерями
Размер потока : 113 Мбайт (1%)
Заголовок : MVO Светла
Язык : Russian
Default : Нет
Forced : Нет

Аудио #6
Идентификатор : 7
Формат : DTS
Формат/Информация : Digital Theater Systems
Режим : 16
Параметр Endianness формата : Big
Идентификатор кодека : A_DTS
Продолжительность : 1 ч. 21 м.
Вид битрейта : Постоянный
Битрейт : 768 Кбит/сек
Каналы : 2 канала
Расположение каналов : Front: L R
Частота : 48,0 КГц
Битовая глубина : 16 бит
Метод сжатия : С потерями
Размер потока : 450 Мбайт (5%)
Заголовок : original
Язык : French
Default : Нет
Forced : Нет

Текст #1
Идентификатор : 8
Формат : UTF-8
Идентификатор кодека : S_TEXT/UTF8
Идентификатор кодека/Информация : UTF-8 Plain Text
Заголовок : русские
Язык : Russian
Default : Нет
Forced : Нет

Текст #2
Идентификатор : 9
Формат : UTF-8
Идентификатор кодека : S_TEXT/UTF8
Идентификатор кодека/Информация : UTF-8 Plain Text
Заголовок : английские
Язык : English
Default : Нет
Forced : Нет

Меню
00:00:00.000 : :Chapter 01
00:08:23.707 : :Chapter 02
00:14:38.582 : :Chapter 03
00:22:00.000 : :Chapter 04
00:27:25.415 : :Chapter 05
00:34:22.416 : :Chapter 06
00:40:05.791 : :Chapter 07
00:50:03.125 : :Chapter 08
00:57:20.458 : :Chapter 09
01:02:04.791 : :Chapter 10
01:07:41.000 : :Chapter 11
01:13:04.416 : :Chapter 12
01:21:57.750 : :Chapter 13


_________________
Проголосуй за трекер Открытый торрент трекер - RUS-MEDIA.ORG

Проголосуй Открытый торрент трекер - RUS-MEDIA.ORG


Вернуться к началу
 Профиль Отправить личное сообщение  
 
   Похожие торренты   Автор   Торрент   Размер 
В этой теме нет новых непрочитанных сообщений. Замороженный / Hibernatus [фантастика, фэнтези, комедия, 1969] BDRip 720p, Dub+Mvo+Sub

salma3

58 | 34

7.16 ГБ

В этой теме нет новых непрочитанных сообщений. Замороженный / Hibernatus [фантастика, фэнтези, комедия, 1969] BDRip 720p, Dub

salma3

0 | 0

3.46 ГБ

В этой теме нет новых непрочитанных сообщений. Замороженный / Hibernatus [комедия, фантастика, экранизация, 1969] BDRemux 1080p, Dub

salma3

7 | 2

19.39 ГБ

В этой теме нет новых непрочитанных сообщений. Замороженный / Hibernatus [комедия, фантастика, экранизация, 1969] BDRemux 1080p, Dub+Mvo+Sub

salma3

1 | 12

19.39 ГБ

В этой теме нет новых непрочитанных сообщений. Замороженный / Ледяной человек / Iceman [драма, фантастика, 1984] WEB-DL 1080p, Mvo

salma3

18 | 27

10.43 ГБ

В этой теме нет новых непрочитанных сообщений. Человек-метеор / The Meteor Man [Фантастика, фэнтези, комедия, 1993] BDRip 1080p, Mvo

salma3

0 | 0

12.23 ГБ

В этой теме нет новых непрочитанных сообщений. Охотники за привидениями / Ghostbusters [фантастика, фэнтези, боевик, комедия, 2016] BDRip 1080p, Dub [iTunes]

salma3

1138 | 430

11.76 ГБ


Начать новую тему Ответить на тему  [ 1 сообщение ] 




Для Мосгорсуда, Роскомнадзора и рекламодателей:: mosgorsud-torrent[собачка]yandex.ru
cron