Торрент файл
скачать торрент магнет ссылка Добавлен: 04 апр 2018, 21:18
Размер: 9.24 ГБ
Сидеров: 0
Личеров: 1
Статус: (salma3)
Автор

СообщениеДобавлено: 04 апр 2018, 21:18 

В сети
Супермодератор
Аватара пользователя
Дата регистрации:
15 фев 2012, 16:44
Возраст: 29
Спасибо: 7339 / 2147
Сообщения: 75613
Год выхода: 2003
Жанр: фантастика, боевик, комедия
Режиссер: Алекс Замм

В ролях: Френч Стюарт, Илэйн Хендрикс, Тони Мартин, Кэйтлин Уэкс, Марк Митчел, Сигрид Торнтон, Брюс Спенс, Джон Батчелор

О фильме:
Не зря Ривертон называют самым тихим городом в мире, ведь закон и порядок в нем охраняет непобедимый инспектор Гаджет — киборг, в тело которого встроены тысячи приспособлений для борьбы с преступностью. Он один стоит целого полицейского участка, и поскольку бандиты боятся его как огня, Ривертон они обходят стороной. Но супергерою рано почивать на лаврах: его место может занять киборг нового поколения, механическая девица Гаджет-2.



Страна: США
Продолжительность: 01:28:42
Перевод: Профессиональный [многоголосый]

Файл
Кодек: x.264
Качество: WEB-DLRip 1080p
Видео: MPEG-4 AVC, 1920x1080, ~ 14.0 Mбит/с, 23.976 кадр/с
Звук:
Аудио #1: Русский ( АС3, 6ch, 448 Кбит/с, 48.0 KHz) Профессиональный (многоголосый, закадровый)
Аудио #2: Английский ( АС3, 6ch, 448 Кбит/с, 48.0 KHz)
Субтитры: pусские, английские
Трейлер
Источник: Inspector.Gadget.2.2003.1080p.AMZN.WEBRip.DDP5.1.x264-SiGMA
General
Unique ID : 183606455152817065987712239244607448843 (0x8A215126A90D39A394D71FB1F817670B)
Complete name : Inspector.Gadget.II.2003.WEB-DLRip.1080p.mkv
Format : Matroska
Format version : Version 4 / Version 2
File size : 9.24 GiB
Duration : 1 h 28 min
Overall bit rate mode : Variable
Overall bit rate : 14.9 Mb/s
Encoded date : UTC 2018-04-04 10:23:36
Writing application : mkvmerge v7.1.0 ('Good Love') 64bit built on Jul 27 2014 13:06:55
Writing library : libebml v1.3.0 + libmatroska v1.4.1

Video
ID : 1
Format : AVC
Format/Info : Advanced Video Codec
Format profile : High@L4
Format settings : CABAC / 4 Ref Frames
Format settings, CABAC : Yes
Format settings, ReFrames : 4 frames
Codec ID : V_MPEG4/ISO/AVC
Duration : 1 h 28 min
Bit rate mode : Variable
Bit rate : 14.0 Mb/s
Maximum bit rate : 15.0 Mb/s
Width : 1 920 pixels
Height : 1 080 pixels
Display aspect ratio : 16:9
Frame rate mode : Constant
Frame rate : 23.976 (24000/1001) FPS
Color space : YUV
Chroma subsampling : 4:2:0
Bit depth : 8 bits
Scan type : Progressive
Bits/(Pixel*Frame) : 0.282
Stream size : 8.69 GiB (94%)
Writing library : x264 core 148 r2623 d5b2374
Encoding settings : cabac=1 / ref=4 / deblock=1:-1:-1 / analyse=0x3:0x133 / me=umh / subme=9 / psy=1 / psy_rd=1.00:0.15 / mixed_ref=1 / me_range=24 / chroma_me=1 / trellis=2 / 8x8dct=1 / cqm=0 / deadzone=21,11 / fast_pskip=1 / chroma_qp_offset=-3 / threads=34 / lookahead_threads=5 / sliced_threads=0 / nr=150 / decimate=1 / interlaced=0 / bluray_compat=0 / constrained_intra=0 / bframes=8 / b_pyramid=2 / b_adapt=2 / b_bias=0 / direct=3 / weightb=1 / open_gop=0 / weightp=2 / keyint=120 / keyint_min=61 / scenecut=0 / intra_refresh=0 / rc_lookahead=120 / rc=crf / mbtree=1 / crf=18.0 / qcomp=0.60 / qpmin=0 / qpmax=69 / qpstep=4 / vbv_maxrate=15000 / vbv_bufsize=31250 / crf_max=0.0 / nal_hrd=vbr / filler=0 / ip_ratio=1.40 / aq=3:1.00
Language : English
Default : Yes
Forced : No
Color range : Limited
Color primaries : BT.709
Transfer characteristics : BT.709
Matrix coefficients : BT.709

Audio #1
ID : 2
Format : AC-3
Format/Info : Audio Coding 3
Codec ID : A_AC3
Duration : 1 h 28 min
Bit rate mode : Constant
Bit rate : 448 kb/s
Channel(s) : 6 channels
Channel positions : Front: L C R, Side: L R, LFE
Sampling rate : 48.0 kHz
Frame rate : 31.250 FPS (1536 SPF)
Bit depth : 16 bits
Compression mode : Lossy
Stream size : 284 MiB (3%)
Title : Профессиональный (многоголосый, закадровый)
Language : Russian
Service kind : Complete Main
Default : Yes
Forced : No

Audio #2
ID : 3
Format : AC-3
Format/Info : Audio Coding 3
Codec ID : A_AC3
Duration : 1 h 28 min
Bit rate mode : Constant
Bit rate : 448 kb/s
Channel(s) : 6 channels
Channel positions : Front: L C R, Side: L R, LFE
Sampling rate : 48.0 kHz
Frame rate : 31.250 FPS (1536 SPF)
Bit depth : 16 bits
Compression mode : Lossy
Stream size : 284 MiB (3%)
Language : English
Service kind : Complete Main
Default : No
Forced : No

Text #1
ID : 4
Format : UTF-8
Codec ID : S_TEXT/UTF8
Codec ID/Info : UTF-8 Plain Text
Duration : 1 h 28 min
Bit rate : 92 b/s
Count of elements : 1030
Stream size : 60.2 KiB (0%)
Language : Russian
Default : No
Forced : No

Text #2
ID : 5
Format : UTF-8
Codec ID : S_TEXT/UTF8
Codec ID/Info : UTF-8 Plain Text
Duration : 1 h 26 min
Bit rate : 63 b/s
Count of elements : 1366
Stream size : 40.0 KiB (0%)
Language : English
Default : No
Forced : No

Menu
00:00:00.000 : en:Chapter 01
00:08:06.320 : en:Chapter 02
00:16:24.760 : en:Chapter 03
00:22:57.120 : en:Chapter 04
00:30:14.080 : en:Chapter 05
00:40:25.000 : en:Chapter 06
00:46:52.640 : en:Chapter 07
00:51:50.600 : en:Chapter 08
00:55:16.120 : en:Chapter 09
00:59:08.800 : en:Chapter 10
01:04:15.840 : en:Chapter 11
01:13:45.640 : en:Chapter 12


_________________
Проголосуй за трекер Открытый торрент трекер - RUS-MEDIA.ORG

Проголосуй Открытый торрент трекер - RUS-MEDIA.ORG


Вернуться к началу
 Профиль Отправить личное сообщение  
 
   Похожие торренты   Автор   Торрент   Размер 
В этой теме нет новых непрочитанных сообщений. Инспектор Клузо / Inspector Clouseau [комедия, 1968] HDTVRip-AVC, Dub+Dvo

salma3

104 | 21

1.46 ГБ

В этой теме нет новых непрочитанных сообщений. Инспектор Клузо / Inspector Clouseau [комедия, криминал, детектив, 1968] HDRip, Dub [ТНТ]

salma3

19 | 0

1.45 ГБ

В этой теме нет новых непрочитанных сообщений. Люди Икс 2 / X2 [фантастика, боевик, триллер, 2003] WEB-DLRip-AVC. Dub [Open Matte]

salma3

0 | 0

2.09 ГБ

В этой теме нет новых непрочитанных сообщений. Люди Икс 2 / X2 [фантастика, боевик, триллер, 2003] WEB-DLRip 720p. Dub [Open Matte]

salma3

0 | 0

5.77 ГБ

В этой теме нет новых непрочитанных сообщений. [ScoreHD.com (PornMegaLoad.com) / Scoreland.com] Sabrina-Jade (Big Tit Inspector) [2017 г., Big Tits, 1080p]

salma3

23 | 7

730.4 МБ

В этой теме нет новых непрочитанных сообщений. Час расплаты / Paycheck [фантастика, боевик, триллер, 2003] Blu-Ray 1080p, Dub

salma3

0 | 0

43.03 ГБ

В этой теме нет новых непрочитанных сообщений. Халк / Hulk [фантастика, боевик, 2003] BDRemux 1080p, Dub

salma3

0 | 3

32.52 ГБ


Начать новую тему Ответить на тему  [ 1 сообщение ] 




Для Мосгорсуда, Роскомнадзора и рекламодателей:: mosgorsud-torrent[собачка]yandex.ru
cron