COVID-19 - Последняя информация о коронавирусе на сайте Минздрава




Торрент файл
скачать торрент магнет ссылка Добавлен: 04 апр 2018, 21:14
Размер: 3.28 ГБ
Сидеров: 0
Личеров: 0
Статус: (salma3)
Автор

СообщениеДобавлено: 04 апр 2018, 21:14 

Не в сети
Супермодератор
Аватара пользователя
Дата регистрации:
15 фев 2012, 16:44
Возраст: 30
Спасибо: 8263 / 2148
Сообщения: 96287
Год выпуска: 2007
Страна: Великобритания
Жанр: военная драма
Продолжительность: 00:45:46 + 00:49:18

Перевод: Профессиональный (многоголосый закадровый) Showjet

Режиссер: Брайан Кирк
В ролях: Дэвид Хэйг, Дэниэл Рэдклифф, Ким Кэтролл, Кэри Маллиган, Джулиан Вэдхэм, Мартин МакКанн, Ричард Дормер, Лоуренс Кинлан, Киаран Нолан

Описание: Основано на реальных событиях.
Всю свою жизнь Редьярд Киплинг безуспешно разыскивал сына Джека, который присоединился к ирландским войскам и пропал без вести во время Первой Мировой войны. Горькая ирония судьбы заключается в том, что Киплинг сам использовал всё своё влияние, чтобы комиссия признала Джека годным к строевой несмотря на слабое зрение.



Качество: WEB-DL 1080p
Контейнер: MKV
Видео: AVC, 1920x1080 (16:9), 25 fps, 4.5 Mbps
Аудио: AC3, 48 KHz, 6 ch, 448 kbps (Showjet)
Субтитры: нет

Complete name : D:My.Boy.Jack.1080p.WEB-DLMy.Boy.Jack.E01.1080p.WEB-DL.DD5.1.H264.mkv
Format : Matroska
Format version : Version 4 / Version 2
File size : 1.58 GiB
Duration : 45 min 46 s
Overall bit rate : 4 941 kb/s
Encoded date : UTC 2018-03-06 08:46:28
Writing application : mkvmerge v18.0.0 ('Apricity') 32-bit
Writing library : libebml v1.3.5 + libmatroska v1.4.8

Video
ID : 1
Format : AVC
Format/Info : Advanced Video Codec
Format profile : High@L4
Format settings : CABAC / 4 Ref Frames
Format settings, CABAC : Yes
Format settings, RefFrames : 4 frames
Codec ID : V_MPEG4/ISO/AVC
Duration : 45 min 46 s
Bit rate : 4 491 kb/s
Width : 1 920 pixels
Height : 1 080 pixels
Display aspect ratio : 16:9
Frame rate mode : Constant
Frame rate : 25.000 FPS
Standard : PAL
Color space : YUV
Chroma subsampling : 4:2:0
Bit depth : 8 bits
Scan type : Progressive
Bits/(Pixel*Frame) : 0.087
Stream size : 1.44 GiB (91%)
Default : Yes
Forced : No
Color range : Limited
Color primaries : BT.709
Transfer characteristics : BT.709
Matrix coefficients : BT.709

Audio
ID : 2
Format : AC-3
Format/Info : Audio Coding 3
Format settings, Endianness : Big
Codec ID : A_AC3
Duration : 45 min 46 s
Bit rate mode : Constant
Bit rate : 448 kb/s
Channel(s) : 6 channels
Channel positions : Front: L C R, Side: L R, LFE
Sampling rate : 48.0 kHz
Frame rate : 31.250 FPS (1536 SPF)
Bit depth : 16 bits
Compression mode : Lossy
Stream size : 147 MiB (9%)
Language : Russian
Service kind : Complete Main
Default : Yes
Forced : No




_________________
Проголосуй за трекер Открытый торрент трекер - RUS-MEDIA.ORG

Проголосуй Открытый торрент трекер - RUS-MEDIA.ORG


Скачать книги и аудио книги через торрент


Вернуться к началу
 Профиль Отправить личное сообщение  
 
   Похожие торренты   Автор   Торрент   Размер 
В этой теме нет новых непрочитанных сообщений. Мальчик по имени Парусник / A Boy Called Sailboat [Драма, комедия, семейный, 2018] WEB-DL 1080p, Mvo

salma3

6 | 2

3.49 ГБ

В этой теме нет новых непрочитанных сообщений. Красивый мальчик / Beautiful Boy [Драма, биография, 2018] BDRip 1080p, Mvo

salma3

0 | 0

11.68 ГБ

В этой теме нет новых непрочитанных сообщений. Дом, который построил Джек / The House That Jack Built [Ужасы, триллер, драма, 2018] WEB-DL 1080p, Avo

salma3

1 | 0

13.06 ГБ

В этой теме нет новых непрочитанных сообщений. Джек Райан / Jack Ryan [S01] [Боевик, триллер, драма, 2018] WEB-DL 720p, Mvo [LostFilm]

salma3

0 | 0

10.73 ГБ

В этой теме нет новых непрочитанных сообщений. Джек Райан / Jack Ryan [S02] [Боевик, триллер, драма, 2019] WEB-DLRip, Mvo [HDRezka Studio]

salma3

0 | 2

5.16 ГБ

В этой теме нет новых непрочитанных сообщений. Джек Райан / Jack Ryan [S02] [Боевик, триллер, драма, 2019] WEBRip 1080p, Mvo [Profix Media]

Haint

1 | 0

15.57 ГБ

В этой теме нет новых непрочитанных сообщений. Мальчик-игрушка / Boy Toy [Комедия, 2011] WEBRip 1080p, Mvo

salma3

1 | 1

5.68 ГБ


Начать новую тему Ответить на тему  [ 1 сообщение ] 




Для Мосгорсуда, Роскомнадзора и рекламодателей:: rstracker[собака]yandex.ru
cron