Торрент файл
скачать торрент магнет ссылка Добавлен: 04 апр 2018, 10:34
Размер: 3.91 ГБ
Сидеров: 0
Личеров: 1
Статус: (salma3)
Автор

СообщениеДобавлено: 04 апр 2018, 10:34 

Не в сети
Супермодератор
Аватара пользователя
Дата регистрации:
15 фев 2012, 16:44
Возраст: 28
Спасибо: 7165 / 2147
Сообщения: 61901
Год выхода: 2017
Жанр: Камбоджа, США
Категория: драма, биография, история
Режиссер постановщик: Анджелина Джоли

В главных ролях: Сарем Срей Мох, Фонг Комфак, Свенг Сочеата, Мун Кимхак, Хенг Дара, Кун Соти, Сарун Ника, Рун Малина, Оун Срей Нанг, Хорм Кхора

О фильме: История Лун Ун, камбоджийской писательницы и правозащитницы, вспоминающей ужасы, которые она пережила во времена правления смертоносных Красных кхмеров.



Файл
Качество: WEBRip 720p
Видео данные: MKV, 1280x672 (1.905), 23.976 fps, 3615 Кбит/с
Аудио данные: AC3, 2 ch, 384 Кбит/с
Перевод: Любительский многоголосый (GreenРай Studio)
Продолжительность: 02:17:21

имеется реклама

General
Unique ID : 206934893175069453692787074985333727440 (0x9BAE35F26E2D4BF298AD927718D9A0D0)
Complete name : E:ГРИНРАЙFirst.They.Killed.My.Father.2017.P.WEB-DL.720p.mkv
Format : Matroska
Format version : Version 4 / Version 2
File size : 3.91 GiB
Duration : 2 h 17 min
Overall bit rate : 4 080 kb/s
Encoded date : UTC 2018-04-03 05:27:49
Writing application : mkvmerge v6.5.0 ('Isn't she lovely') built on Oct 20 2013 12:50:05
Writing library : libebml v1.3.0 + libmatroska v1.4.1

Video
ID : 1
Format : AVC
Format/Info : Advanced Video Codec
Format profile : High@L3.1
Format settings : CABAC / 4 Ref Frames
Format settings, CABAC : Yes
Format settings, RefFrames : 4 frames
Codec ID : V_MPEG4/ISO/AVC
Duration : 2 h 17 min
Bit rate : 3 615 kb/s
Width : 1 280 pixels
Height : 672 pixels
Display aspect ratio : 1.905
Frame rate mode : Constant
Frame rate : 23.976 FPS
Color space : YUV
Chroma subsampling : 4:2:0
Bit depth : 8 bits
Scan type : Progressive
Bits/(Pixel*Frame) : 0.175
Stream size : 3.47 GiB (89%)
Writing library : x264 core 146 r2538 121396c
Encoding settings : cabac=1 / ref=1 / deblock=1:0:0 / analyse=0x3:0x113 / me=hex / subme=2 / psy=1 / psy_rd=1.00:0.00 / mixed_ref=0 / me_range=16 / chroma_me=1 / trellis=0 / 8x8dct=1 / cqm=0 / deadzone=21,11 / fast_pskip=1 / chroma_qp_offset=0 / threads=9 / lookahead_threads=3 / sliced_threads=0 / nr=0 / decimate=1 / interlaced=0 / bluray_compat=0 / constrained_intra=0 / bframes=3 / b_pyramid=2 / b_adapt=1 / b_bias=0 / direct=1 / weightb=1 / open_gop=0 / weightp=1 / keyint=250 / keyint_min=23 / scenecut=40 / intra_refresh=0 / rc_lookahead=10 / rc=crf / mbtree=1 / crf=18.0 / qcomp=0.60 / qpmin=0 / qpmax=69 / qpstep=4 / ip_ratio=1.40 / aq=1:1.00
Language : English
Default : Yes
Forced : No

Audio
ID : 2
Format : AC-3
Format/Info : Audio Coding 3
Codec ID : A_AC3
Duration : 2 h 17 min
Bit rate mode : Constant
Bit rate : 384 kb/s
Channel(s) : 2 channels
Channel positions : Front: L R
Sampling rate : 48.0 kHz
Frame rate : 31.250 FPS (1536 SPF)
Bit depth : 16 bits
Compression mode : Lossy
Stream size : 377 MiB (9%)
Service kind : Complete Main
Default : Yes
Forced : No


Релиз от:


_________________
Проголосуй за трекер Открытый торрент трекер - RUS-MEDIA.ORG

Проголосуй Открытый торрент трекер - RUS-MEDIA.ORG


Вернуться к началу
 Профиль Отправить личное сообщение  
 
   Похожие торренты   Автор   Торрент   Размер 
В этой теме нет новых непрочитанных сообщений. Сначала они убили моего отца / First They Killed My Father: A Daughter of Cambodia Remembers [драма, биография, история, 2017] WEBRip, Mvo [GreenРай Studio]

salma3

27 | 10

1.47 ГБ

В этой теме нет новых непрочитанных сообщений. Сначала они убили моего отца / First They Killed My Father: A Daughter of Cambodia Remembers [драма, биография, история, 2017] WEBRip 1080p, Mvo [GreenРай Studio]

salma3

0 | 0

4.11 ГБ

В этой теме нет новых непрочитанных сообщений. Желание моего отца / My Father's Will [Драма, 2009] DVDRip, Mvo

salma3

83 | 1

1.45 ГБ

В этой теме нет новых непрочитанных сообщений. История о мустанге и покорной женщине / The Mustanger and the Lady [вестерн, 2017] WEBRip 720p, Mvo [GreenРай Studio]

salma3

7 | 1

1.66 ГБ

В этой теме нет новых непрочитанных сообщений. Смерть моего отца / My Father Die [боевик, драма, 2016] WEB-DL 1080p, Avo

salma3

24 | 14

3.5 ГБ

В этой теме нет новых непрочитанных сообщений. Смерть моего отца / My Father Die [боевик, драма, 2016] WEBDLRip, Avo

salma3

162 | 54

1.45 ГБ

В этой теме нет новых непрочитанных сообщений. Бесит быть нормальным / Mad to Be Normal [драма, биография, история, 2017] HDTVRip, Nvo [GreenРай Studio]

Alfredovich

22 | 3

1.37 ГБ


Начать новую тему Ответить на тему  [ 1 сообщение ] 




Для Мосгорсуда, Роскомнадзора и рекламодателей:: mosgorsud-torrent[собачка]yandex.ru
cron