Торрент файл
скачать торрент магнет ссылка Добавлен: 04 апр 2018, 01:17
Размер: 7.76 ГБ
Сидеров: 0
Личеров: 0
Статус: (salma3)
Автор

СообщениеДобавлено: 04 апр 2018, 01:17 

Не в сети
Супермодератор
Аватара пользователя
Дата регистрации:
15 фев 2012, 16:44
Возраст: 29
Спасибо: 7322 / 2147
Сообщения: 73260
Год выхода: 2014
Жанр: комедия, вестерн
Режиссер: Сет МакФарлейн

В ролях: Сет МакФарлейн, Шарлиз Терон, Аманда Сайфред, Лиам Нисон, Джованни Рибизи, Нил Патрик Харрис, Сара Силверман, Кристофер Хэйген, Уэс Стьюди, Мэтт Кларк

О фильме: Угораздило же влюбиться не в том месте и не в то время. Здесь хамят в ресторанах, о горячей воде слагают легенды, да и с транспортом полный коллапс. Но у таинственной незнакомки отменная фигура, да и стреляет она без промаха. Кто же по своей воле откажется от такой красотки?



Выпущено: Universal Pictures
Продолжительность: 01:56:01
Перевод: Дублированный (лицензия)

Файл
Кодек: x264
Качество: BDRip (источник: Blu-ray Disc)
Видео: 1920x800 (2,40:1), 23.976 fps, 8680 kbps
Аудио #1: AC-3, 6 ch, 448 kbps (Rus)
Аудио #2: AC-3, 6 ch, 448 kbps (Eng)
Субтитры: Русские, Английские
Скачать: сэмпл


Общее
Уникальный идентификатор : 213670321186668678043867115885744137793 (0xA0BF682FD7C6C3A6929B5F0D726CA641)
Полное имя : A.Million.Ways.to.Die.in.the.West.2014.BDRip.1080p.Rus.Eng.mkv
Формат : Matroska
Версия формата : Version 2
Размер файла : 7,76 Гбайт
Продолжительность : 1 ч. 56 м.
Общий поток : 9573 Кбит/сек
Название фильма : Миллион способов потерять голову / A Million Ways to Die in the West (2014)
Дата кодирования : UTC 2014-09-07 19:07:25
Программа кодирования : mkvmerge v5.8.0 ('No Sleep / Pillow') built on Sep 2 2012 15:37:04
Библиотека кодирования : libebml v1.2.3 + libmatroska v1.3.0

Видео
Идентификатор : 1
Формат : AVC
Формат/Информация : Advanced Video Codec
Профиль формата : High@L4.1
Параметр CABAC формата : Да
Параметр ReFrames формата : 5 кадров
Идентификатор кодека : V_MPEG4/ISO/AVC
Продолжительность : 1 ч. 56 м.
Битрейт : 8680 Кбит/сек
Ширина : 1920 пикселей
Высота : 800 пикселей
Соотношение сторон : 2,40:1
Режим частоты кадров : Постоянный
Частота кадров : 23,976 кадра/сек
Цветовое пространство : YUV
Субдискретизация насыщенности : 4:2:0
Битовая глубина : 8 бит
Тип развёртки : Прогрессивная
Бит/(Пиксели*Кадры) : 0.236
Размер потока : 6,88 Гбайт (89%)
Заголовок : Release by AlexKa
Библиотека кодирования : x264 core 142 r2479 dd79a61
Настройки программы : cabac=1 / ref=5 / deblock=1:-3:-3 / analyse=0x3:0x133 / me=umh / subme=11 / psy=1 / psy_rd=1.10:0.00 / mixed_ref=1 / me_range=32 / chroma_me=1 / trellis=2 / 8x8dct=1 / cqm=0 / deadzone=21,11 / fast_pskip=0 / chroma_qp_offset=-2 / threads=12 / lookahead_threads=2 / sliced_threads=0 / nr=0 / decimate=0 / interlaced=0 / bluray_compat=0 / constrained_intra=0 / bframes=7 / b_pyramid=2 / b_adapt=2 / b_bias=0 / direct=3 / weightb=1 / open_gop=0 / weightp=2 / keyint=240 / keyint_min=23 / scenecut=40 / intra_refresh=0 / rc=2pass / mbtree=0 / bitrate=8680 / ratetol=1.0 / qcomp=0.60 / qpmin=0 / qpmax=69 / qpstep=4 / cplxblur=20.0 / qblur=0.5 / ip_ratio=1.40 / pb_ratio=1.30 / aq=1:0.70
Язык : English

Аудио #1
Идентификатор : 2
Формат : AC-3
Формат/Информация : Audio Coding 3
Расширение режима : CM (complete main)
Параметр Endianness формата : Big
Идентификатор кодека : A_AC3
Продолжительность : 1 ч. 56 м.
Вид битрейта : Постоянный
Битрейт : 448 Кбит/сек
Каналы : 6 каналов
Расположение каналов : Front: L C R, Side: L R, LFE
Частота : 48,0 КГц
Битовая глубина : 16 бит
Метод сжатия : С потерями
Размер потока : 372 Мбайт (5%)
Заголовок : Rus
Язык : Russian

Аудио #2
Идентификатор : 3
Формат : AC-3
Формат/Информация : Audio Coding 3
Расширение режима : CM (complete main)
Параметр Endianness формата : Big
Идентификатор кодека : A_AC3
Продолжительность : 1 ч. 56 м.
Вид битрейта : Постоянный
Битрейт : 448 Кбит/сек
Каналы : 6 каналов
Расположение каналов : Front: L C R, Side: L R, LFE
Частота : 48,0 КГц
Битовая глубина : 16 бит
Метод сжатия : С потерями
Размер потока : 372 Мбайт (5%)
Заголовок : Eng
Язык : English

Текст #1
Идентификатор : 4
Формат : UTF-8
Идентификатор кодека : S_TEXT/UTF8
Идентификатор кодека/Информация : UTF-8 Plain Text
Заголовок : Rus
Язык : Russian

Текст #2
Идентификатор : 5
Формат : UTF-8
Идентификатор кодека : S_TEXT/UTF8
Идентификатор кодека/Информация : UTF-8 Plain Text
Заголовок : Eng
Язык : English

Меню
00:00:00.000 : :Chapter 01
00:03:02.140 : :Chapter 02
00:08:25.796 : :Chapter 03
00:12:26.996 : :Chapter 04
00:18:24.895 : :Chapter 05
00:23:06.176 : :Chapter 06
00:28:13.441 : :Chapter 07
00:35:10.441 : :Chapter 08
00:39:33.704 : :Chapter 09
00:44:59.822 : :Chapter 10
00:50:14.469 : :Chapter 11
00:58:14.532 : :Chapter 12
01:05:44.941 : :Chapter 13
01:13:28.070 : :Chapter 14
01:17:55.128 : :Chapter 15
01:23:44.561 : :Chapter 16
01:27:24.656 : :Chapter 17
01:35:27.888 : :Chapter 18
01:42:52.374 : :Chapter 19
01:49:42.951 : :Chapter 20
01:56:01.079 : :Chapter 21
x264 [info]: frame I:1850 Avg QP:14.18 size:250366
x264 [info]: frame P:38187 Avg QP:15.85 size: 84483
x264 [info]: frame B:126867 Avg QP:17.80 size: 30416
x264 [info]: consecutive B-frames: 2.3% 2.7% 13.7% 20.7% 18.8% 37.7% 3.0% 1.0%


_________________
Проголосуй за трекер Открытый торрент трекер - RUS-MEDIA.ORG

Проголосуй Открытый торрент трекер - RUS-MEDIA.ORG


Вернуться к началу
 Профиль Отправить личное сообщение  
 
   Похожие торренты   Автор   Торрент   Размер 
В этой теме нет новых непрочитанных сообщений. 8 миллионов способов умереть / 8 Million Ways to Die [Боевик, триллер, криминал, 1986] BDRemux 1080p, Mvo

salma3

0 | 0

23.55 ГБ

В этой теме нет новых непрочитанных сообщений. Миллион ударов / One Million K(l)icks [боевик, 2015] HDRip, Mvo

salma3

59 | 23

1.45 ГБ

В этой теме нет новых непрочитанных сообщений. Дантист на диком западе / The Shakiest Gun in the West [Комедия, вестерн, 1968] WEB-DL 1080p, Mvo

salma3

0 | 0

9.46 ГБ

В этой теме нет новых непрочитанных сообщений. Грязная семейка 2 / Не за миллион / Not For A Million / Dirty Family 2 (1995) DVDRip

salma3

123 | 4

1.46 ГБ

В этой теме нет новых непрочитанных сообщений. Строго на запад / Медленный Запад / Slow West [Боевик, триллер, вестерн, 2015] BDRip 720p, Dub+Avo+Sub [Лицензия]

Dracon

237 | 52

6.88 ГБ

В этой теме нет новых непрочитанных сообщений. Принесите мне голову Альфредо Гарсиа / Bring Me the Head of Alfredo Garcia [Боевик, триллер, вестерн, 1974] BDRemux 1080p, Mvo

salma3

25 | 48

32.44 ГБ

В этой теме нет новых непрочитанных сообщений. Путь на Запад / The Way West [Вестерн, экранизация, 1967] Blu-Ray 1080p, Mvo

salma3

15 | 27

28.58 ГБ


Начать новую тему Ответить на тему  [ 1 сообщение ] 




Для Мосгорсуда, Роскомнадзора и рекламодателей:: mosgorsud-torrent[собачка]yandex.ru
cron