Торрент файл
скачать торрент магнет ссылка Добавлен: 04 апр 2018, 01:16
Размер: 7.76 ГБ
Сидеров: 0
Личеров: 0
Статус: (salma3)
Автор

СообщениеДобавлено: 04 апр 2018, 01:16 

Не в сети
Супермодератор
Аватара пользователя
Дата регистрации:
15 фев 2012, 16:44
Возраст: 28
Спасибо: 7226 / 2147
Сообщения: 68215
Год выхода: 2012
Жанр: боевик, комедия
Режиссер: Фрэнк Корачи

В ролях: Кевин Джеймс, Сальма Хайек, Генри Уинклер, Грег Джерманн, Джо Роган, Гари Валентайн, Чарис Пемпенгко, Бас Раттен, Регги Ли, Марк ДеллаГротт

О фильме: Учитель биологии в средней школе подрабатывает бойцом в смешанных боевых искусствах, пытаясь собрать деньги, чтобы сохранить школьную музыкальную программу.



Выпущено: Columbia Pictures
Продолжительность: 01:44:55
Перевод: Дублированный (лицензия)

Файл
Кодек: x264
Качество: BDRip (источник: Blu-ray Disc)
Видео: 1920x1040 (16:9), 23.976 fps, 9310 kbps
Аудио #1: AC-3, 6 ch, 640 kbps (Rus)
Аудио #2: AC-3, 6 ch, 640 kbps (Eng)
Субтитры: Русские, Английские
Скачать: сэмпл


Общее
Уникальный идентификатор : 178140229423482687703858465174383073018 (0x86048F6A3A854B2DA805E00FF02196FA)
Полное имя : Here.Comes.the.Boom.2012.BDRip.1080p.Rus.Eng.mkv
Формат : Matroska
Версия формата : Version 2
Размер файла : 7,76 Гбайт
Продолжительность : 1 ч. 44 м.
Общий поток : 10,6 Мбит/сек
Название фильма : Толстяк на ринге / Here Comes the Boom (2012)
Дата кодирования : UTC 2013-02-08 01:20:23
Программа кодирования : mkvmerge v5.8.0 ('No Sleep / Pillow') built on Sep 2 2012 15:37:04
Библиотека кодирования : libebml v1.2.3 + libmatroska v1.3.0

Видео
Идентификатор : 1
Формат : AVC
Формат/Информация : Advanced Video Codec
Профиль формата : High@L4.1
Параметр CABAC формата : Да
Параметр ReFrames формата : 4 кадра
Идентификатор кодека : V_MPEG4/ISO/AVC
Продолжительность : 1 ч. 44 м.
Битрейт : 9310 Кбит/сек
Ширина : 1920 пикселей
Высота : 1040 пикселей
Соотношение сторон : 16:9
Частота кадров : 23,976 кадра/сек
Цветовое пространство : YUV
Субдискретизация насыщенности : 4:2:0
Битовая глубина : 8 бит
Тип развёртки : Прогрессивная
Бит/(Пиксели*Кадры) : 0.194
Размер потока : 6,67 Гбайт (86%)
Заголовок : Release by AlexKa
Библиотека кодирования : x264 core 129 r2245 bc13772
Настройки программы : cabac=1 / ref=4 / deblock=1:-3:-3 / analyse=0x3:0x133 / me=umh / subme=10 / psy=1 / psy_rd=1.00:0.00 / mixed_ref=1 / me_range=32 / chroma_me=1 / trellis=2 / 8x8dct=1 / cqm=0 / deadzone=21,11 / fast_pskip=0 / chroma_qp_offset=-2 / threads=12 / lookahead_threads=2 / sliced_threads=0 / nr=0 / decimate=0 / interlaced=0 / bluray_compat=0 / constrained_intra=0 / bframes=3 / b_pyramid=2 / b_adapt=2 / b_bias=0 / direct=3 / weightb=1 / open_gop=0 / weightp=2 / keyint=240 / keyint_min=23 / scenecut=40 / intra_refresh=0 / rc=2pass / mbtree=0 / bitrate=9310 / ratetol=1.0 / qcomp=0.60 / qpmin=0 / qpmax=69 / qpstep=4 / cplxblur=20.0 / qblur=0.5 / ip_ratio=1.40 / pb_ratio=1.30 / aq=1:0.70
Язык : English

Аудио #1
Идентификатор : 2
Формат : AC-3
Формат/Информация : Audio Coding 3
Расширение режима : CM (complete main)
Идентификатор кодека : A_AC3
Продолжительность : 1 ч. 44 м.
Вид битрейта : Постоянный
Битрейт : 640 Кбит/сек
Каналы : 6 каналов
Расположение каналов : Front: L C R, Side: L R, LFE
Частота : 48,0 КГц
Битовая глубина : 16 бит
Метод сжатия : С потерями
Размер потока : 480 Мбайт (6%)
Заголовок : Rus
Язык : Russian

Аудио #2
Идентификатор : 3
Формат : AC-3
Формат/Информация : Audio Coding 3
Расширение режима : CM (complete main)
Идентификатор кодека : A_AC3
Продолжительность : 1 ч. 44 м.
Вид битрейта : Постоянный
Битрейт : 640 Кбит/сек
Каналы : 6 каналов
Расположение каналов : Front: L C R, Side: L R, LFE
Частота : 48,0 КГц
Битовая глубина : 16 бит
Метод сжатия : С потерями
Размер потока : 480 Мбайт (6%)
Заголовок : Eng
Язык : English

Текст #1
Идентификатор : 4
Формат : UTF-8
Идентификатор кодека : S_TEXT/UTF8
Идентификатор кодека/Информация : UTF-8 Plain Text
Заголовок : Rus
Язык : Russian

Текст #2
Идентификатор : 5
Формат : UTF-8
Идентификатор кодека : S_TEXT/UTF8
Идентификатор кодека/Информация : UTF-8 Plain Text
Заголовок : Eng
Язык : English

Меню
00:00:00.000 : :Chapter 01
00:08:41.896 : :Chapter 02
00:12:53.606 : :Chapter 03
00:18:21.934 : :Chapter 04
00:27:42.577 : :Chapter 05
00:34:16.888 : :Chapter 06
00:42:40.558 : :Chapter 07
00:49:34.846 : :Chapter 08
00:55:49.596 : :Chapter 09
01:02:05.972 : :Chapter 10
01:06:42.373 : :Chapter 11
01:11:09.556 : :Chapter 12
01:17:27.184 : :Chapter 13
01:22:00.040 : :Chapter 14
01:33:03.327 : :Chapter 15
01:38:50.466 : :Chapter 16
x264 [info]: frame I:1947 Avg QP:17.21 size:262539
x264 [info]: frame P:44736 Avg QP:20.13 size: 88095
x264 [info]: frame B:104253 Avg QP:22.21 size: 27551


_________________
Проголосуй за трекер Открытый торрент трекер - RUS-MEDIA.ORG

Проголосуй Открытый торрент трекер - RUS-MEDIA.ORG


Вернуться к началу
 Профиль Отправить личное сообщение  
 
   Похожие торренты   Автор   Торрент   Размер 
В этой теме нет новых непрочитанных сообщений. Толстяк на ринге / Here Comes the Boom [боевик, комедия, 2012] BDRip, Dub

salma3

48 | 19

1.46 ГБ

В этой теме нет новых непрочитанных сообщений. Верняк / Bang Boom Bang - Ein todsicheres Ding [Боевик, комедия, 1999] BDRip 1080p, Mvo

salma3

94 | 25

8.89 ГБ

В этой теме нет новых непрочитанных сообщений. Толстяк / Fatso [драма, комедия, 2008] BDRip 720p, Avo

salma3

31 | 10

4.64 ГБ

В этой теме нет новых непрочитанных сообщений. Крутой чувак / Bad Ass [боевик, триллер, комедия, 2012] BDRip 1080p, Mvo

salma3

16 | 2

8.29 ГБ

В этой теме нет новых непрочитанных сообщений. Бэби-бум / Baby Boom [Комедия, Мелодрама, 1987] WEBRip 1080p, Mvo+Sub

salma3

10 | 14

11.29 ГБ

В этой теме нет новых непрочитанных сообщений. Люди в черном 3 / Men in Black III [Фантастика, боевик, комедия, 2012] BDRip-HEVC 1080p, Dub

salma3

0 | 0

8.94 ГБ

В этой теме нет новых непрочитанных сообщений. Мстители / The Avengers [боевик, фантастика, 2012] BDRip-HEVC 1080p, Dub

salma3

44 | 5

4.89 ГБ


Начать новую тему Ответить на тему  [ 1 сообщение ] 




Для Мосгорсуда, Роскомнадзора и рекламодателей:: mosgorsud-torrent[собачка]yandex.ru
cron