Торрент файл
скачать торрент магнет ссылка Добавлен: 03 апр 2018, 00:33
Размер: 22.35 ГБ
Сидеров: 11
Личеров: 3
Статус: (salma3)
Автор

СообщениеДобавлено: 03 апр 2018, 00:34 

Не в сети
Супермодератор
Аватара пользователя
Дата регистрации:
15 фев 2012, 16:44
Возраст: 30
Спасибо: 8134 / 2148
Сообщения: 94920
Год выхода: 1990
Жанр: ужасы, фантастика, боевик
Режиссер: Марк Л. Лестер

В ролях: Брэдли Грегг, Трейси Линд, Малкольм МакДауэлл, Стейси Кич, Пэтрик Килпэтрик, Пэм Гриер, Джон П. Райан, Даррен Э. Берроуз, Джошуа Джон Миллер, Шэрон Уайатт

О фильме: Время действия — 1999 год. В школах и вузах США — полный беспредел, творимый молодежными бандами. Департамент Обороны Образования, отчаявшись навести дисциплину в Высшей школе Кеннеди решает воспользоваться услугами фирмы «Мегатек», работавшей на оборону и продолжающей вести разработку различных моделей роботов, в том числе учителей-киборгов.

Три электронных учителя, прибывшие в школу, моментально звереют от общения со своими студентами и начинают безжалостное смертельное сражение «за успеваемость и посещаемость». На этот раз юные бандиты находят себе равных противников!



Страна: США
Продолжительность: 01:36:12
Перевод 1: Профессиональный (двухголосый закадровый) CP-Digital
Перевод 2: Профессиональный (двухголосый закадровый)
Перевод 3: Авторский (одноголосый закадровый) Павел Санаев
Перевод 4: Авторский (одноголосый закадровый) Вартан Дохалов
Перевод 5: Авторский (одноголосый закадровый) Павел Прямостанов
Субтитры: русские, английские

Файл
Качество: BDRemux 1080р
Видео: MPEG-4 AVC, 1920x1080p (16:9), 23.976 fps, 29637 kbps
Аудио 1: русский / AC3 / 2.0 / 48 kHz / 448 kbps / 16 bits | CP-Digital
Аудио 2: русский / AC3 / 2.0 / 48 kHz / 192 kbps / 16 bits | P2
Аудио 3: русский / AC3 / 2.0 / 48 kHz / 192 kbps / 16 bits | Павел Санаев
Аудио 4: русский / AC3 / 5.1 / 48 kHz / 448 kbps / 16 bits | Вартан Дохалов
Аудио 5: русский / AC3 / 2.0 / 48 kHz / 192 kbps / 16 bits | Павел Прямостанов
Аудио 6: английский / DTS-HD MA / 2.0 / 48 kHz / 2137 kbps / 24 bits / (DTS Core: 2.0, 48 kHz, 1509 kbps, 24 bits) | ENG

General
Unique ID : 210873491449636395617849847085438758636 (0x9EA4C1D5A219E0A8A0B5046A7DDE6EEC)
Complete name : Class of 1999.1990.US.BDRemux.1080p.5xRus.Eng.Subs.Chpt.mkv
Format : Matroska
Format version : Version 4 / Version 2
File size : 22.3 GiB
Duration : 1 h 36 min
Overall bit rate mode : Variable
Overall bit rate : 33.3 Mb/s
Movie name : Class of 1999 1990 US BDRemux 1080p
Encoded date : UTC 2018-04-02 18:01:50
Writing application : mkvmerge v8.5.2 ('Crosses') 64bit
Writing library : libebml v1.3.3 + libmatroska v1.4.4

Video
ID : 1
Format : AVC
Format/Info : Advanced Video Codec
Format profile : High@L4.1
Format settings : CABAC / 3 Ref Frames
Format settings, CABAC : Yes
Format settings, RefFrames : 3 frames
Format settings, GOP : M=3, N=12
Codec ID : V_MPEG4/ISO/AVC
Duration : 1 h 36 min
Bit rate mode : Variable
Bit rate : 29.6 Mb/s
Maximum bit rate : 35.0 Mb/s
Width : 1 920 pixels
Height : 1 080 pixels
Display aspect ratio : 16:9
Frame rate mode : Constant
Frame rate : 23.976 (24000/1001) FPS
Standard : NTSC
Color space : YUV
Chroma subsampling : 4:2:0
Bit depth : 8 bits
Scan type : Progressive
Bits/(Pixel*Frame) : 0.596
Stream size : 19.9 GiB (89%)
Title : Class of 1999 1990 US BDRemux 1080p ~29637 kbps avg
Language : English
Default : Yes
Forced : No
Color range : Limited
Color primaries : BT.709
Transfer characteristics : BT.709
Matrix coefficients : BT.709

Audio #1
ID : 2
Format : AC-3
Format/Info : Audio Coding 3
Format settings, Endianness : Big
Codec ID : A_AC3
Duration : 1 h 36 min
Bit rate mode : Constant
Bit rate : 448 kb/s
Channel(s) : 2 channels
Channel positions : Front: L R
Sampling rate : 48.0 kHz
Frame rate : 31.250 FPS (1536 SPF)
Bit depth : 16 bits
Compression mode : Lossy
Stream size : 308 MiB (1%)
Title : DVO (CP-Digital)
Language : Russian
Default : Yes
Forced : No

Audio #2
ID : 3
Format : AC-3
Format/Info : Audio Coding 3
Format settings, Endianness : Big
Codec ID : A_AC3
Duration : 1 h 36 min
Bit rate mode : Constant
Bit rate : 192 kb/s
Channel(s) : 2 channels
Channel positions : Front: L R
Sampling rate : 48.0 kHz
Frame rate : 31.250 FPS (1536 SPF)
Bit depth : 16 bits
Compression mode : Lossy
Stream size : 132 MiB (1%)
Title : DVO
Language : Russian
Default : No
Forced : No

Audio #3
ID : 4
Format : AC-3
Format/Info : Audio Coding 3
Format settings, Endianness : Big
Codec ID : A_AC3
Duration : 1 h 36 min
Bit rate mode : Constant
Bit rate : 192 kb/s
Channel(s) : 2 channels
Channel positions : Front: L R
Sampling rate : 48.0 kHz
Frame rate : 31.250 FPS (1536 SPF)
Bit depth : 16 bits
Compression mode : Lossy
Stream size : 132 MiB (1%)
Title : AVO (Павел Санаев)
Language : Russian
Default : No
Forced : No

Audio #4
ID : 5
Format : AC-3
Format/Info : Audio Coding 3
Format settings, Endianness : Big
Codec ID : A_AC3
Duration : 1 h 36 min
Bit rate mode : Constant
Bit rate : 448 kb/s
Channel(s) : 6 channels
Channel positions : Front: L C R, Side: L R, LFE
Sampling rate : 48.0 kHz
Frame rate : 31.250 FPS (1536 SPF)
Bit depth : 16 bits
Compression mode : Lossy
Stream size : 308 MiB (1%)
Title : AVO (Вартан Дохалов)
Language : Russian
Default : No
Forced : No

Audio #5
ID : 6
Format : AC-3
Format/Info : Audio Coding 3
Format settings, Endianness : Big
Codec ID : A_AC3
Duration : 1 h 36 min
Bit rate mode : Constant
Bit rate : 192 kb/s
Channel(s) : 2 channels
Channel positions : Front: L R
Sampling rate : 48.0 kHz
Frame rate : 31.250 FPS (1536 SPF)
Bit depth : 16 bits
Compression mode : Lossy
Stream size : 132 MiB (1%)
Title : AVO (Павел Прямостанов)
Language : Russian
Default : No
Forced : No

Audio #6
ID : 7
Format : DTS
Format/Info : Digital Theater Systems
Format profile : MA / Core
Mode : 16
Format settings, Endianness : Big
Codec ID : A_DTS
Duration : 1 h 36 min
Bit rate mode : Variable / Constant
Bit rate : 2 137 kb/s / 1 509 kb/s
Channel(s) : 2 channels
Channel positions : Front: L R
Sampling rate : 48.0 kHz
Frame rate : 93.750 FPS (512 SPF)
Bit depth : 24 bits
Compression mode : Lossless / Lossy
Stream size : 1.44 GiB (6%)
Title : Original
Language : English
Default : No
Forced : No

Text #1
ID : 8
Format : UTF-8
Codec ID : S_TEXT/UTF8
Codec ID/Info : UTF-8 Plain Text
Duration : 1 h 29 min
Bit rate : 75 b/s
Count of elements : 559
Stream size : 49.3 KiB (0%)
Title : Full
Language : Russian
Default : No
Forced : No

Text #2
ID : 9
Format : UTF-8
Codec ID : S_TEXT/UTF8
Codec ID/Info : UTF-8 Plain Text
Duration : 1 h 34 min
Bit rate : 46 b/s
Count of elements : 1088
Stream size : 32.2 KiB (0%)
Title : Full
Language : English
Default : No
Forced : No

Text #3
ID : 10
Format : UTF-8
Codec ID : S_TEXT/UTF8
Codec ID/Info : UTF-8 Plain Text
Duration : 1 h 35 min
Bit rate : 55 b/s
Count of elements : 1443
Stream size : 39.1 KiB (0%)
Title : SDH
Language : English
Default : No
Forced : No

Menu
00:00:00.000 : en:Chapter 1
00:10:02.059 : en:Chapter 2
00:15:00.399 : en:Chapter 3
00:25:35.075 : en:Chapter 4
00:31:54.120 : en:Chapter 5
00:39:31.911 : en:Chapter 6
00:49:29.007 : en:Chapter 7
00:56:26.341 : en:Chapter 8
01:04:49.760 : en:Chapter 9
01:12:37.853 : en:Chapter 10
01:20:22.317 : en:Chapter 11
01:31:39.494 : en:Chapter 12


_________________
Проголосуй за трекер Открытый торрент трекер - RUS-MEDIA.ORG

Проголосуй Открытый торрент трекер - RUS-MEDIA.ORG


Скачать книги и аудио книги через торрент


Вернуться к началу
 Профиль Отправить личное сообщение  
 
   Похожие торренты   Автор   Торрент   Размер 
В этой теме нет новых непрочитанных сообщений. Класс 1999 / Class of 1999 [Фантастика, боевик, ужасы, 1990] BDRemux 1080р, Dvo

salma3

4 | 22

23.8 ГБ

В этой теме нет новых непрочитанных сообщений. Класс 1999 / Class of 1999 [ужасы, фантастика, боевик, 1990] HDRip, Dvo

salma3

94 | 15

1.37 ГБ

В этой теме нет новых непрочитанных сообщений. Класс 1999 / Class of 1999 [ужасы, фантастика, боевик, 1990] BDRip 720p, Dvo

salma3

9 | 6

5.39 ГБ

В этой теме нет новых непрочитанных сообщений. Класс 1999 / Class of 1999 [ужасы, фантастика, боевик, 1990] BDRip 1080p, Dvo

salma3

0 | 0

13.61 ГБ

В этой теме нет новых непрочитанных сообщений. Класс 1999 / Class of 1999 [ужасы, фантастика, боевик, 1990] BDRip 720p, Dvo

salma3

34 | 11

6.22 ГБ

В этой теме нет новых непрочитанных сообщений. Класс 1999 / Class of 1999 [ужасы, фантастика, боевик, 1990] BDRip 1080p, Dvo

salma3

40 | 17

10.77 ГБ

В этой теме нет новых непрочитанных сообщений. Класс 1999 / Class of 1999 [ужасы, фантастика, боевик, 1990] DVDRip-AVC, Dvo

salma3

128 | 38

2.66 ГБ


Начать новую тему Ответить на тему  [ 1 сообщение ] 




Для Мосгорсуда, Роскомнадзора и рекламодателей:: mosgorsud-torrent[собачка]yandex.ru
cron