Торрент файл
скачать торрент магнет ссылка Добавлен: 29 мар 2018, 21:11
Размер: 8.99 ГБ
Сидеров: 32
Личеров: 8
Статус: (salma3)
Автор

СообщениеДобавлено: 29 мар 2018, 21:11 

Не в сети
Супермодератор
Аватара пользователя
Дата регистрации:
15 фев 2012, 16:44
Возраст: 29
Спасибо: 7380 / 2147
Сообщения: 76322
Год выпуска: 2018
Страна: Канада, США
Жанр: фантастика, боевик


Перевод: Любительский многоголосый [HDrezka Studio]
Субтитры: английские (Full), английские (SDH)
Примечание: Релиз без рекламы
Продолжительность: 01:33:54

Режиссер: Питер Хауит
В ролях: Джина Карано (Gage), Сара Троер (Young Gage), Джон Ханна (Doc), Алиша Ньютон (Beatrice), Стефани Беннетт (Melena), Райан Роббинс (Thomas Jackson), Патрик Сабонгуй (Womack), Лувия Петерсен (Chavo), Патрик Гилмор (Sheriff Grubbs), Дэниэл Бэйкон (Bartender), Дин Джаггер III (Lear), Нэйтан Митчелл (Zee)


Описание:
Будущее, на планете случилась некая глобальная катастрофа, в результате которой погибли миллиарды людей. Охотница за головами, которая почти ничем не отличается от тех, за кем охотится, пытается найти и обезвредить самого опасного преступника нового мира. За это ей обещают солидный куш.

Рейтинг:

MPAA: R - Лицам до 17 лет обязательно присутствие взрослого

Качество: BDRip 1080p
Формат: MKV
Видео: AVC, 1920x1036 (1.85:1), 12000 kbps, 23,976 fps, 0,252 bpp
Аудио №1: русский / AC3 / 2.0 / 48 kHz / 192 kbps / |MVO|
Аудио №2: английский / DTS / 5.1 / 48 kHz / 1509 kbps / 24 bit
Навигация по главам: есть
Сэмпл


General
Unique ID : 250157254713589583590970159443831842729 (0xBC3288E66A5ACD286C9B64149CEE67A9)
Complete name : E:Scorched.Earth.2018.BDRip1080p.MVO.mkv
Format : Matroska
Format version : Version 4 / Version 2
File size : 8.99 GiB
Duration : 1 h 33 min
Overall bit rate : 13.7 Mb/s
Movie name : Выжженная земля / Scorched Earth (2018) BDRip 1080p MVO
Encoded date : UTC 2018-03-29 14:19:41
Writing application : mkvmerge v21.0.0 ('Tardigrades Will Inherit The Earth') 64-bit
Writing library : libebml v1.3.5 + libmatroska v1.4.8

Video
ID : 1
Format : AVC
Format/Info : Advanced Video Codec
Format profile : High@L4.1
Format settings, CABAC : Yes
Format settings, ReFrames : 4 frames
Codec ID : V_MPEG4/ISO/AVC
Duration : 1 h 33 min
Bit rate : 12.0 Mb/s
Width : 1 920 pixels
Height : 1 036 pixels
Display aspect ratio : 1.85:1
Frame rate mode : Constant
Frame rate : 23.976 (24000/1001) FPS
Color space : YUV
Chroma subsampling : 4:2:0
Bit depth : 8 bits
Scan type : Progressive
Bits/(Pixel*Frame) : 0.252
Stream size : 7.87 GiB (88%)
Writing library : x264 core 142 r2431+42 c69a006 tMod [8-bit@4:2:0 X86]
Encoding settings : cabac=1 / ref=4 / deblock=1:-3:-3 / analyse=0x3:0x133 / me=umh / subme=10 / psy=1 / fade_compensate=0.00 / psy_rd=1.00:0.00 / mixed_ref=1 / me_range=48 / chroma_me=1 / trellis=2 / 8x8dct=1 / cqm=0 / deadzone=21,11 / fast_pskip=0 / chroma_qp_offset=-2 / threads=12 / lookahead_threads=1 / sliced_threads=0 / nr=0 / decimate=0 / interlaced=0 / bluray_compat=0 / constrained_intra=0 / fgo=0 / bframes=6 / b_pyramid=2 / b_adapt=2 / b_bias=0 / direct=3 / weightb=0 / open_gop=0 / weightp=2 / keyint=230 / keyint_min=22 / scenecut=40 / intra_refresh=0 / rc_lookahead=60 / rc=2pass / mbtree=1 / bitrate=12000 / ratetol=1.0 / qcomp=0.60 / qpmin=0:0:0 / qpmax=69:69:69 / qpstep=4 / cplxblur=20.0 / qblur=0.5 / vbv_maxrate=50000 / vbv_bufsize=50000 / nal_hrd=none / filler=0 / ip_ratio=1.40 / aq=1:1.00 / aq-sensitivity=10.00 / aq-factor=1.00:1.00:1.00 / aq2=0 / aq3=0
Language : English
Default : Yes
Forced : No

Audio #1
ID : 2
Format : AC-3
Format/Info : Audio Coding 3
Mode extension : CM (complete main)
Format settings, Endianness : Big
Codec ID : A_AC3
Duration : 1 h 33 min
Bit rate mode : Constant
Bit rate : 192 kb/s
Channel(s) : 2 channels
Channel positions : Front: L R
Sampling rate : 48.0 kHz
Frame rate : 31.250 FPS (1536 spf)
Compression mode : Lossy
Stream size : 129 MiB (1%)
Title : MVO | HDrezka Studio
Language : Russian
Default : Yes
Forced : No

Audio #2
ID : 3
Format : DTS
Format/Info : Digital Theater Systems
Mode : 16
Format settings, Endianness : Big
Codec ID : A_DTS
Duration : 1 h 33 min
Bit rate mode : Constant
Bit rate : 1 509 kb/s
Channel(s) : 6 channels
Channel positions : Front: L C R, Side: L R, LFE
Sampling rate : 48.0 kHz
Frame rate : 93.750 FPS (512 spf)
Bit depth : 24 bits
Compression mode : Lossy
Stream size : 1 014 MiB (11%)
Title : Original
Language : English
Default : No
Forced : No

Text #1
ID : 4
Format : UTF-8
Codec ID : S_TEXT/UTF8
Codec ID/Info : UTF-8 Plain Text
Duration : 1 h 28 min
Bit rate : 43 b/s
Count of elements : 1009
Stream size : 28.2 KiB (0%)
Title : Full
Language : English
Default : No
Forced : No

Text #2
ID : 5
Format : UTF-8
Codec ID : S_TEXT/UTF8
Codec ID/Info : UTF-8 Plain Text
Duration : 1 h 29 min
Bit rate : 46 b/s
Count of elements : 1204
Stream size : 30.7 KiB (0%)
Title : SDH
Language : English
Default : No
Forced : No

Menu
00:00:00.000 : en:00:00:00.000
00:12:18.029 : en:00:12:18.029
00:24:05.903 : en:00:24:05.903
00:37:14.858 : en:00:37:14.858
00:50:44.917 : en:00:50:44.917
01:01:09.082 : en:01:01:09.082
01:14:11.030 : en:01:14:11.030
01:28:41.983 : en:01:28:41.983



_________________
Проголосуй за трекер Открытый торрент трекер - RUS-MEDIA.ORG

Проголосуй Открытый торрент трекер - RUS-MEDIA.ORG


Вернуться к началу
 Профиль Отправить личное сообщение  
 
   Похожие торренты   Автор   Торрент   Размер 
В этой теме нет новых непрочитанных сообщений. Выжженная земля / Scorched Earth [Фантастика, боевик, 2018] BDRip 1080p, Mvo

salma3

242 | 95

8.42 ГБ

В этой теме нет новых непрочитанных сообщений. Выжженная земля / Scorched Earth [Фантастика, боевик, 2018] BDRip 1080p, Mvo [Jaskier]

salma3

89 | 42

8.71 ГБ

В этой теме нет новых непрочитанных сообщений. Выжженная земля / Scorched Earth [Фантастика, боевик, 2018] BDRip, Mvo

salma3

130 | 11

745.51 МБ

В этой теме нет новых непрочитанных сообщений. Выжженная земля / Scorched Earth [Фантастика, боевик, 2018] BDRip, Mvo [Jaskier]

salma3

0 | 0

1.46 ГБ

В этой теме нет новых непрочитанных сообщений. Выжженная земля / Scorched Earth [Фантастика, боевик, 2018] BDRip, Mvo [Jaskier]

salma3

0 | 1

1.46 ГБ

В этой теме нет новых непрочитанных сообщений. Выжженная земля / Scorched Earth [Фантастика, боевик, 2018] BDRip, Mvo [Jaskier]

salma3

0 | 0

745.51 МБ

В этой теме нет новых непрочитанных сообщений. Выжженная земля / Scorched Earth [Фантастика, боевик, 2018] BDRip 720p, Mvo [Jaskier]

salma3

0 | 0

4.78 ГБ


Начать новую тему Ответить на тему  [ 1 сообщение ] 




Для Мосгорсуда, Роскомнадзора и рекламодателей:: mosgorsud-torrent[собачка]yandex.ru
cron