COVID-19 - Последняя информация о коронавирусе на сайте Минздрава




Торрент файл
скачать торрент магнет ссылка Добавлен: 27 мар 2018, 11:56
Размер: 12.92 ГБ
Сидеров: 0
Личеров: 0
Статус: (salma3)
Автор

СообщениеДобавлено: 27 мар 2018, 11:56 

Не в сети
Супермодератор
Аватара пользователя
Дата регистрации:
15 фев 2012, 16:44
Возраст: 31
Спасибо: 8278 / 2148
Сообщения: 96624
Страна: США
Жанр: Драма, музыка, мистика, роман
Год выпуска: 1986
Продолжительность: 01:38:49

Перевод: Профессиональный (многоголосый закадровый) Tycoon
Перевод 2: Авторский (одноголосый закадровый) Королев
Перевод 3: профессиональный (одноголосый закадровый) Валерий Захарьев
Субтитры: русские, английские
Оригинальная аудиодорожка: английский

Режиссер: Уолтер Хилл / Walter Hill

В ролях: Джон Хэнкок / John Hancock, Ралф Маккио / Ralph Macchio, Деннис Липском / Dennis Lipscomb, Джо Мортон / Joe Morton, Хэрри Кэри-младший / Harry Carey Jr., Джо Сенека / Joe Seneca, Джэми Гертц / Jami Gertz, Роберт Джадд / Robert Judd, Стив Вай / Steve Vai

Описание: Молодое музыкальное дарование Юджин мечтает о том, что однажды он станет знаменитым блюзовым гитаристом. Единственный, кто может помочь ему в этом, — легенда блюза Вилли Браун. Так, сам того не подозревая, Юджин становится частью плана старого гитариста по возвращению своей души, проданной когда-то дьяволу за талант музыканта…



Тип релиза: HDTV 1080i
Контейнер: MKV
Видео: 1920x1080 (16:9), 29.970 fps, MPEG-2 Video, ~17.2 Mbps, 0.277 bits/pixel
Аудио: Russian, 48.0 KHz, AC3, 6 ch, 384 Kbps - Многоголосый закадровый - Tycoon
Аудио 2: Russian, 48.0 KHz, AC3, 2 ch, 192 Kbps - Авторский - Королев
Аудио 3: Russian, 48.0 KHz, AC3, 2 ch, 192 Kbps - Профессиональный - Валерий Захарьев
Аудио 4: English, 48.0 KHz, AC3, 6 ch, 384 Kbps
Формат субтитров: softsub (SRT)

Общее
Уникальный идентификатор : 181140558493376948858664523188422564010 (0x8846670F200D159AB88C79DBDC97D8AA)
Полное имя : F:TempРЕСТАВРАЦІЯCrossroads.1986.HDTV.1080i.x264.3xRus.Eng.mkv
Формат : Matroska
Версия формата : Version 4 / Version 2
Размер файла : 12,9 Гбайт
Продолжительность : 1 ч. 38 м.
Режим общего битрейта : Переменный
Общий поток : 18,7 Мбит/сек
Название фильма : Перекресток / Crossroads
Дата кодирования : UTC 2018-03-27 07:00:10
Программа кодирования : mkvmerge v7.9.0 ('Birds') 64bit
Библиотека кодирования : libebml v1.3.1 + libmatroska v1.4.2
_STATISTICS_WRITING_APP : mkvmerge v7.9.0 ('Birds') 64bit
_STATISTICS_WRITING_DATE_UTC : 2018-03-27 07:00:10
_STATISTICS_TAGS : BPS DURATION NUMBER_OF_FRAMES NUMBER_OF_BYTES
DURATION : 01:34:17.316000000
NUMBER_OF_FRAMES : 1106
NUMBER_OF_BYTES : 97661

Видео
Идентификатор : 1
Формат : MPEG Video
Версия формата : Version 2
Профиль формата : Main@High
Параметр BVOP формата : Нет
Параметр матрицы формата : Выборочная
Идентификатор кодека : V_MPEG2
Идентификатор кодека/Информация : MPEG 1 or 2 Video
Продолжительность : 1 ч. 38 м.
Вид битрейта : Переменный
Битрейт : 17,2 Мбит/сек
Максимальный битрейт : 65,0 Мбит/сек
Ширина : 1920 пикселей
Высота : 1080 пикселей
Соотношение сторон : 16:9
Режим частоты кадров : Постоянный
Частота кадров : 29,970 кадров/сек
Цветовое пространство : YUV
Субдискретизация насыщенности : 4:2:0
Битовая глубина : 8 бит
Тип развёртки : Чересстрочная
Порядок развёртки : Верхнее поле первое
Метод сжатия : С потерями
Бит/(Пиксели*Кадры) : 0.277
Временной код первого кадра : 10:05:51;05
Оригинал временного кода : Group of pictures header
Размер потока : 11,9 Гбайт (92%)
Default : Да
Forced : Нет

Аудио #1
Идентификатор : 2
Формат : AC-3
Формат/Информация : Audio Coding 3
Расширение режима : CM (complete main)
Параметр Endianness формата : Big
Идентификатор кодека : A_AC3
Продолжительность : 1 ч. 38 м.
Вид битрейта : Постоянный
Битрейт : 384 Кбит/сек
Каналы : 6 каналов
Расположение каналов : Front: L C R, Side: L R, LFE
Частота : 48,0 КГц
Битовая глубина : 16 бит
Метод сжатия : С потерями
Задержка видео : -67 мс.
Размер потока : 271 Мбайт (2%)
Заголовок : Многоголосый закадровый - Tycoon
Язык : Russian
Default : Нет
Forced : Нет

Аудио #2
Идентификатор : 3
Формат : AC-3
Формат/Информация : Audio Coding 3
Профиль формата : Dolby Digital
Расширение режима : CM (complete main)
Параметр Endianness формата : Big
Идентификатор кодека : A_AC3
Продолжительность : 1 ч. 38 м.
Вид битрейта : Постоянный
Битрейт : 192 Кбит/сек
Каналы : 2 канала
Расположение каналов : Front: L R
Частота : 48,0 КГц
Битовая глубина : 16 бит
Метод сжатия : С потерями
Задержка видео : -67 мс.
Размер потока : 136 Мбайт (1%)
Заголовок : Авторский - Королев
Язык : Russian
Default : Да
Forced : Нет

Аудио #3
Идентификатор : 4
Формат : AC-3
Формат/Информация : Audio Coding 3
Расширение режима : CM (complete main)
Параметр Endianness формата : Big
Идентификатор кодека : A_AC3
Продолжительность : 1 ч. 38 м.
Вид битрейта : Постоянный
Битрейт : 192 Кбит/сек
Каналы : 2 канала
Расположение каналов : Front: L R
Частота : 48,0 КГц
Битовая глубина : 16 бит
Метод сжатия : С потерями
Задержка видео : -67 мс.
Размер потока : 136 Мбайт (1%)
Заголовок : Профессиональный - Валерий Захарьев
Язык : Russian
Default : Нет
Forced : Нет

Аудио #4
Идентификатор : 5
Формат : AC-3
Формат/Информация : Audio Coding 3
Расширение режима : CM (complete main)
Параметр Endianness формата : Big
Идентификатор кодека : A_AC3
Продолжительность : 1 ч. 38 м.
Вид битрейта : Постоянный
Битрейт : 384 Кбит/сек
Каналы : 6 каналов
Расположение каналов : Front: L C R, Side: L R, LFE
Частота : 48,0 КГц
Битовая глубина : 16 бит
Метод сжатия : С потерями
Задержка видео : -67 мс.
Размер потока : 271 Мбайт (2%)
Язык : English
Default : Нет
Forced : Нет

Текст #1
Идентификатор : 6
Формат : UTF-8
Идентификатор кодека : S_TEXT/UTF8
Идентификатор кодека/Информация : UTF-8 Plain Text
Язык : Russian
Default : Да
Forced : Нет

Текст #2
Идентификатор : 7
Формат : UTF-8
Идентификатор кодека : S_TEXT/UTF8
Идентификатор кодека/Информация : UTF-8 Plain Text
Язык : English
Default : Нет
Forced : Нет




_________________
Проголосуй за трекер Открытый торрент трекер - RUS-MEDIA.ORG

Проголосуй Открытый торрент трекер - RUS-MEDIA.ORG


Скачать книги и аудио книги через торрент


Вернуться к началу
 Профиль Отправить личное сообщение  
 
   Похожие торренты   Автор   Торрент   Размер 
В этой теме нет новых непрочитанных сообщений. Перекрестки / Crossroads [Драма, музыка, мистика, 1986] HDTVRip 720p, Mvo

salma3

0 | 0

4.55 ГБ

В этой теме нет новых непрочитанных сообщений. Перекресток / Crossroads [Драма, мелодрама, музыкальный, 1986] HDTVRip-AVC, Mvo

salma3

0 | 0

1.45 ГБ

В этой теме нет новых непрочитанных сообщений. Перекресток / Crossroads [Драма, мелодрама, музыкальный, 1986] HDTVRip 720p, Mvo

salma3

0 | 0

6.49 ГБ

В этой теме нет новых непрочитанных сообщений. Девчонка не промах / Nobody's Fool [Комедия, драма, мелодрама, 1986] HDTV 1080i, Dvo

salma3

0 | 0

5.93 ГБ

В этой теме нет новых непрочитанных сообщений. Крепкие тела 2 / Вертихвостки 2 / Hardbodies 2 [комедия, 1986] HDTV 1080i, Dvo [НТВ+]

salma3

0 | 0

4.27 ГБ

В этой теме нет новых непрочитанных сообщений. Псы / Psy [боевик, триллер, драма, 1992] HDTV 1080i, Mvo

salma3

0 | 0

6.09 ГБ

В этой теме нет новых непрочитанных сообщений. По Божьей милости / By God's Grace [драма, семейный, 2014] HDTV 1080i, Mvo

salma3

2 | 1

5.61 ГБ


Начать новую тему Ответить на тему  [ 1 сообщение ] 




Для Мосгорсуда, Роскомнадзора и рекламодателей:: rstracker[собака]yandex.ru
cron