Торрент файл
скачать торрент магнет ссылка Добавлен: 24 мар 2018, 22:18
Размер: 2.44 ГБ
Сидеров: 20
Личеров: 10
Статус: (salma3)
Автор

СообщениеДобавлено: 24 мар 2018, 22:18 

Не в сети
Супермодератор
Аватара пользователя
Дата регистрации:
15 фев 2012, 16:44
Возраст: 28
Спасибо: 7207 / 2147
Сообщения: 65688
Год выхода: 2017
Жанр: триллер, драма, мелодрама
Режиссер: Карлос Санчес, Джейсон Санчес

В ролях: Эван Рэйчел Вуд, Джулия Сара Стоун, Дэнис О Хэр, Максим Рой, Джо Кобден, Джонатан Шатцки, Ярдли Кэвэна, Тереза ​​Пиччиано, Лара Бинам, Ник Бейлли и другие

О фильме:
Уборщица знакомится с девочкой-подростком и убеждает её сбежать из дома и тайно жить у неё.



Страна: Канада, Micro Scope media
Продолжительность: 01:45:34
Перевод: Любительский (двухголосый закадровый) | HiWay Grope

Файл
Кодек: MPEG-4 AVC/x.264
Качество: WEBRip 720p
Видео: 1280x600, 23.976 fps, ~2863 kbps, 0.155 bit/pixel
Аудио rus: AC3, 48 kHz, 6 ch, 384 Kbps

Семпл



General
Unique ID : 90480442698078029680853141489889462927 (0x4411E63EE7D94DFE51186F932FC24A8F)
Complete name : E:Allure.2018.720p.WEBRip.HiWayGropeAllure.2018.720p.WEBRip.HiWayGrope.mkv
Format : Matroska
Format version : Version 4 / Version 2
File size : 2.44 GiB
Duration : 1h 45mn
Overall bit rate : 3 313 Kbps
Encoded date : UTC 2018-03-24 18:02:55
Writing application : mkvmerge v21.0.0 ('Tardigrades Will Inherit The Earth') 64-bit
Writing library : libebml v1.3.5 + libmatroska v1.4.8

Video
ID : 1
Format : AVC
Format/Info : Advanced Video Codec
Format profile : Main@L4.1
Format settings, CABAC : Yes
Format settings, ReFrames : 4 frames
Codec ID : V_MPEG4/ISO/AVC
Duration : 1h 45mn
Bit rate : 2 863 Kbps
Width : 1 280 pixels
Height : 600 pixels
Display aspect ratio : 2.133
Frame rate mode : Constant
Frame rate : 23.976 (24000/1001) fps
Standard : NTSC
Color space : YUV
Chroma subsampling : 4:2:0
Bit depth : 8 bits
Scan type : Progressive
Bits/(Pixel*Frame) : 0.155
Stream size : 2.11 GiB (86%)
Language : English
Default : Yes
Forced : No
Color range : Limited
Color primaries : BT.709
Transfer characteristics : BT.709
Matrix coefficients : BT.709

Audio
ID : 2
Format : AC-3
Format/Info : Audio Coding 3
Mode extension : CM (complete main)
Format settings, Endianness : Big
Codec ID : A_AC3
Duration : 1h 45mn
Bit rate mode : Constant
Bit rate : 384 Kbps
Channel(s) : 6 channels
Channel positions : Front: L C R, Side: L R, LFE
Sampling rate : 48.0 KHz
Frame rate : 31.250 fps (1536 spf)
Compression mode : Lossy
Stream size : 290 MiB (12%)
Title : rus
Language : Russian
Default : Yes
Forced : No



Релиз от: HiWay Grope


_________________
Проголосуй за трекер Открытый торрент трекер - RUS-MEDIA.ORG

Проголосуй Открытый торрент трекер - RUS-MEDIA.ORG


Вернуться к началу
 Профиль Отправить личное сообщение  
 
   Похожие торренты   Автор   Торрент   Размер 
В этой теме нет новых непрочитанных сообщений. Очарование / Allure [триллер, драма, мелодрама, 2017] WEBRip, Dvo

salma3

0 | 0

1.39 ГБ

В этой теме нет новых непрочитанных сообщений. Очарование 7 / Allure 7 (2016) WEB-DL

salma3

156 | 21

1.86 ГБ

В этой теме нет новых непрочитанных сообщений. Кладбище бабочек / On Fallen Wings / Hu Die Gong Mu [Мелодрама, триллер, фэнтези, 2017] WEBRip 720p, Dvo

salma3

0 | 0

2.4 ГБ

В этой теме нет новых непрочитанных сообщений. Кладбище бабочек / On Fallen Wings / Hu Die Gong Mu [Мелодрама, триллер, фэнтези, 2017] WEBRip 720p, Dvo

salma3

0 | 0

2.14 ГБ

В этой теме нет новых непрочитанных сообщений. Новизна / Newness [Драма, мелодрама, 2017] WEBRip 720p, Dvo

salma3

124 | 4

2.61 ГБ

В этой теме нет новых непрочитанных сообщений. Ана, любовь моя / Ana, mon amour [драма, мелодрама, 2017] WEBRip 720p, Mvo [GreenРай Studio]

salma3

0 | 0

3.08 ГБ

В этой теме нет новых непрочитанных сообщений. [BrazzersExxtra.com / Brazzers.com] Vivian Azure (The Allure of Azure / 09.08.2017) [2017 г., Big Tits,Blowjob (POV),Brunette,Gonzo,Handjob (POV),Oil,Reverse Cowgirl (POV),Tittyfuck (POV), 720p]

salma3

38 | 13

1.66 ГБ


Начать новую тему Ответить на тему  [ 1 сообщение ] 




Для Мосгорсуда, Роскомнадзора и рекламодателей:: mosgorsud-torrent[собачка]yandex.ru
cron