COVID-19 - Последняя информация о коронавирусе на сайте Минздрава




Торрент файл
скачать торрент магнет ссылка Добавлен: 24 мар 2018, 22:16
Размер: 10.12 ГБ
Сидеров: 0
Личеров: 0
Статус: (salma3)
Автор

СообщениеДобавлено: 24 мар 2018, 22:16 

Не в сети
Супермодератор
Аватара пользователя
Дата регистрации:
15 фев 2012, 16:44
Возраст: 31
Спасибо: 8273 / 2148
Сообщения: 96475
Год выхода: 2002
Жанр: комедия, приключения, семейный
Режиссер: Брайан Левант

В ролях: Кьюба Гудинг мл., Джеймс Коберн, Сиско, Нишелль Николс, Грэм Грин, Брайан Дойл-Мюррей, Джоанна Бакалсо, Жан Мишель Паре, Джейсон Пульотт, Дэвид Бойс, Фрэнк Ч. Тёрнер, Рон Смолл, Элисон Мэтьюз, Яша Вашингтон, Кристофер Джадж, Лиза Далинг, Данелл Фолта, Питер Мусули, Лоссен Чэмберс,

О фильме:
Тед Брукс – самый известный дантист с Майами. Работа идет полным ходом, желать молодому парню, кажется, нечего. Но однажды он получает уведомление о том, что какая-то женщина по имени Люси включила его в свое предсмертное завещание, а теперь ему полагается доля наследства. Оказывается, что Тед приемный сын, а Люси – его настоящая мать. Он летит в Аляску, и получает наследство – ездовых собак…



Страна: Канада, США
Продолжительность: 01:39:31
Перевод: Профессиональный многоголосый, авторский

Файл
Кодек: x.264
Качество: BDRip 1080p
Видео: MPEG-4 AVC, 1920x1040, 12665 Kбит/с, 23.976 кадр/с
Звук:
Аудио #1: Русский ( AC3, 6ch, 448 Кбит/с, 48.0 KHz) Профессиональный (многоголосый, закадровый) [Карусель]
Аудио #2: Русский ( АС3, 2ch, 192 Кбит/с, 48.0 KHz) Профессиональный (многоголосый, закадровый) [R5]
Аудио #3: Русский ( АС3, 6 ch, 448 Кбит/с, 48.0 KHz) Авторский (одноголосый, закадровый) [ Ю.Живов]
Аудио #4: Украинский ( АС3, 2ch, 192 Кбит/с, 48.0 KHz) Профессиональный (многоголосый, закадровый) [ICTV]
Аудио #5: Украинский ( АС3, 2ch, 192 Кбит/с, 48.0 KHz) Профессиональный (многоголосый, закадровый) [ТЕТ]
Аудио #6: Английский ( АС3, 6 ch, 448 Кбит/с, 48.0 KHz)
Субтитры: pусские, английские

Источник: Snow.Dogs.2002.1080p.BluRay.x264-PSYCHD
General
Unique ID : 195958314412018025808273246274980255511 (0x936C32D4AEAFDC9A9B6ED80E57A59717)
Complete name : Snow.Dogs.2002.BDRip.1080p.3xRus.2xUkr.Eng.mkv
Format : Matroska
Format version : Version 4 / Version 2
File size : 10.1 GiB
Duration : 1 h 39 min
Overall bit rate : 14.6 Mb/s
Movie name : Snow Dogs (2002) - Release for HDCLUB by doclogan
Encoded date : UTC 2018-03-24 12:32:15
Writing application : mkvmerge v7.1.0 ('Good Love') 64bit built on Jul 27 2014 13:06:55
Writing library : libebml v1.3.0 + libmatroska v1.4.1

Video
ID : 1
Format : AVC
Format/Info : Advanced Video Codec
Format profile : High@L4.1
Format settings : CABAC / 4 Ref Frames
Format settings, CABAC : Yes
Format settings, ReFrames : 4 frames
Codec ID : V_MPEG4/ISO/AVC
Duration : 1 h 39 min
Bit rate : 12.7 Mb/s
Width : 1 920 pixels
Height : 1 040 pixels
Display aspect ratio : 1.85:1
Frame rate mode : Constant
Frame rate : 23.976 (24000/1001) FPS
Color space : YUV
Chroma subsampling : 4:2:0
Bit depth : 8 bits
Scan type : Progressive
Bits/(Pixel*Frame) : 0.265
Stream size : 8.78 GiB (87%)
Writing library : x264 core 155 r2901 7d0ff22
Encoding settings : cabac=1 / ref=4 / deblock=1:-3:-3 / analyse=0x3:0x113 / me=umh / subme=8 / psy=1 / psy_rd=1.10:0.00 / mixed_ref=1 / me_range=32 / chroma_me=1 / trellis=2 / 8x8dct=1 / cqm=0 / deadzone=21,11 / fast_pskip=1 / chroma_qp_offset=-2 / threads=18 / lookahead_threads=3 / sliced_threads=0 / nr=0 / decimate=1 / interlaced=0 / bluray_compat=0 / constrained_intra=0 / bframes=3 / b_pyramid=2 / b_adapt=2 / b_bias=0 / direct=3 / weightb=1 / open_gop=0 / weightp=2 / keyint=240 / keyint_min=24 / scenecut=40 / intra_refresh=0 / rc_lookahead=50 / rc=2pass / mbtree=1 / bitrate=12665 / ratetol=1.0 / qcomp=0.60 / qpmin=0 / qpmax=69 / qpstep=4 / cplxblur=20.0 / qblur=0.5 / ip_ratio=1.40 / aq=3:0.75
Language : English
Default : Yes
Forced : No

Audio #1
ID : 2
Format : AC-3
Format/Info : Audio Coding 3
Codec ID : A_AC3
Duration : 1 h 39 min
Bit rate mode : Constant
Bit rate : 448 kb/s
Channel(s) : 6 channels
Channel positions : Front: L C R, Side: L R, LFE
Sampling rate : 48.0 kHz
Frame rate : 31.250 FPS (1536 SPF)
Bit depth : 16 bits
Compression mode : Lossy
Stream size : 318 MiB (3%)
Title : Профессиональный (Многоголосый закадровый)
Language : Russian
Service kind : Complete Main
Default : Yes
Forced : No

Audio #2
ID : 3
Format : AC-3
Format/Info : Audio Coding 3
Codec ID : A_AC3
Duration : 1 h 39 min
Bit rate mode : Constant
Bit rate : 192 kb/s
Channel(s) : 2 channels
Channel positions : Front: L R
Sampling rate : 48.0 kHz
Frame rate : 31.250 FPS (1536 SPF)
Bit depth : 16 bits
Compression mode : Lossy
Stream size : 136 MiB (1%)
Title : Профессиональный (Многоголосый закадровый, R5)
Language : Russian
Service kind : Complete Main
Default : No
Forced : No

Audio #3
ID : 4
Format : AC-3
Format/Info : Audio Coding 3
Codec ID : A_AC3
Duration : 1 h 39 min
Bit rate mode : Constant
Bit rate : 448 kb/s
Channel(s) : 6 channels
Channel positions : Front: L C R, Side: L R, LFE
Sampling rate : 48.0 kHz
Frame rate : 31.250 FPS (1536 SPF)
Bit depth : 16 bits
Compression mode : Lossy
Stream size : 318 MiB (3%)
Title : Авторский (Одноголосый закадровый, Ю.Живов)
Language : Russian
Service kind : Complete Main
Default : No
Forced : No

Audio #4
ID : 5
Format : AC-3
Format/Info : Audio Coding 3
Codec ID : A_AC3
Duration : 1 h 39 min
Bit rate mode : Constant
Bit rate : 192 kb/s
Channel(s) : 2 channels
Channel positions : Front: L R
Sampling rate : 48.0 kHz
Frame rate : 31.250 FPS (1536 SPF)
Bit depth : 16 bits
Compression mode : Lossy
Stream size : 136 MiB (1%)
Title : Профессиональный (многоголосый, закадровый) [ICTV]
Language : Ukrainian
Service kind : Complete Main
Default : No
Forced : No

Audio #5
ID : 6
Format : AC-3
Format/Info : Audio Coding 3
Codec ID : A_AC3
Duration : 1 h 39 min
Bit rate mode : Constant
Bit rate : 192 kb/s
Channel(s) : 2 channels
Channel positions : Front: L R
Sampling rate : 48.0 kHz
Frame rate : 31.250 FPS (1536 SPF)
Bit depth : 16 bits
Compression mode : Lossy
Stream size : 136 MiB (1%)
Title : Профессиональный (многоголосый, закадровый) [ТЕТ]
Language : Ukrainian
Service kind : Complete Main
Default : No
Forced : No

Audio #6
ID : 7
Format : AC-3
Format/Info : Audio Coding 3
Codec ID : A_AC3
Duration : 1 h 39 min
Bit rate mode : Constant
Bit rate : 448 kb/s
Channel(s) : 6 channels
Channel positions : Front: L C R, Side: L R, LFE
Sampling rate : 48.0 kHz
Frame rate : 31.250 FPS (1536 SPF)
Bit depth : 16 bits
Compression mode : Lossy
Stream size : 319 MiB (3%)
Language : English
Service kind : Complete Main
Default : No
Forced : No

Text #1
ID : 8
Format : UTF-8
Codec ID : S_TEXT/UTF8
Codec ID/Info : UTF-8 Plain Text
Duration : 1 h 33 min
Bit rate : 54 b/s
Count of elements : 588
Stream size : 37.3 KiB (0%)
Title : R5
Language : Russian
Default : No
Forced : No

Text #2
ID : 9
Format : UTF-8
Codec ID : S_TEXT/UTF8
Codec ID/Info : UTF-8 Plain Text
Duration : 1 h 33 min
Bit rate : 50 b/s
Count of elements : 1149
Stream size : 34.4 KiB (0%)
Language : English
Default : No
Forced : No

Text #3
ID : 10
Format : UTF-8
Codec ID : S_TEXT/UTF8
Codec ID/Info : UTF-8 Plain Text
Duration : 1 h 33 min
Bit rate : 58 b/s
Count of elements : 1431
Stream size : 40.1 KiB (0%)
Title : SDH
Language : English
Default : No
Forced : No

Menu
00:00:00.000 : en:00:00:00.000
00:04:08.874 : en:00:04:08.874
00:07:44.297 : en:00:07:44.297
00:12:11.856 : en:00:12:11.856
00:17:58.661 : en:00:17:58.661
00:23:21.483 : en:00:23:21.483
00:26:40.224 : en:00:26:40.224
00:35:48.188 : en:00:35:48.188
00:37:31.791 : en:00:37:31.791
00:40:25.173 : en:00:40:25.173
00:41:38.162 : en:00:41:38.162
00:45:21.135 : en:00:45:21.135
00:48:40.251 : en:00:48:40.251
00:52:02.536 : en:00:52:02.536
00:56:30.721 : en:00:56:30.721
00:59:22.559 : en:00:59:22.559
01:00:59.072 : en:01:00:59.072
01:04:15.977 : en:01:04:15.977
01:09:30.458 : en:01:09:30.458
01:11:56.479 : en:01:11:56.479
01:17:37.361 : en:01:17:37.361
01:22:41.957 : en:01:22:41.957
01:27:23.238 : en:01:27:23.238
01:32:59.783 : en:01:32:59.783



_________________
Проголосуй за трекер Открытый торрент трекер - RUS-MEDIA.ORG

Проголосуй Открытый торрент трекер - RUS-MEDIA.ORG


Скачать книги и аудио книги через торрент


Вернуться к началу
 Профиль Отправить личное сообщение  
 
   Похожие торренты   Автор   Торрент   Размер 
В этой теме нет новых непрочитанных сообщений. Снежные псы / Snow Dogs [комедия, приключения, семейный, спорт, 2002] WEB-DLRip-AVC, Mvo

salma3

12 | 4

746.36 МБ

В этой теме нет новых непрочитанных сообщений. Снежные псы / Snow Dogs [комедия, приключения, семейный, спорт, 2002] WEB-DLRip-AVC, Mvo

salma3

20 | 1

2.18 ГБ

В этой теме нет новых непрочитанных сообщений. Псы под прикрытием / Show Dogs [Комедия, приключения, семейный, 2018] BDRip 1080p, Dub [iTunes]

salma3

17 | 7

8.89 ГБ

В этой теме нет новых непрочитанных сообщений. Псы под прикрытием / Show Dogs [Комедия, приключения, семейный, 2018] BDRip, Dub [iTunes]

salma3

65 | 40

1.45 ГБ

В этой теме нет новых непрочитанных сообщений. Псы под прикрытием / Show Dogs [Комедия, приключения, семейный, 2018] BDRip-AVC, Dub [iTunes]

salma3

0 | 0

1.42 ГБ

В этой теме нет новых непрочитанных сообщений. Псы войны / The Dogs of War [Боевик, военный, драма, 1980] BDRip 1080p, Mvo

salma3

9 | 9

11.76 ГБ

В этой теме нет новых непрочитанных сообщений. Соломенные псы / Straw Dogs [Триллер, драма, криминал, 2011] BDRip 720p, Dub

salma3

0 | 0

4.56 ГБ


Начать новую тему Ответить на тему  [ 1 сообщение ] 




Для Мосгорсуда, Роскомнадзора и рекламодателей:: rstracker[собака]yandex.ru
cron