COVID-19 - Последняя информация о коронавирусе на сайте Минздрава




Торрент файл
скачать торрент магнет ссылка Добавлен: 21 мар 2018, 12:01
Размер: 3.17 ГБ
Сидеров: 2
Личеров: 0
Статус: (salma3)
Автор

СообщениеДобавлено: 21 мар 2018, 12:01 

Не в сети
Супермодератор
Аватара пользователя
Дата регистрации:
15 фев 2012, 16:44
Возраст: 31
Спасибо: 8273 / 2148
Сообщения: 96527
Год выхода: 2018
Жанр: Семейный
Режиссер: Джейсон Мерфи

В ролях: Миша Бартон, Стивен Тоболовски, Остин Ст. Джон, Огги Пуллиам, Бруклин Принс, Анджела Виневич, Лола Султан, Мэдисон Ротонди и другие

О фильме:
Алекс решает положить конец кошмарам своего младшего брата, сформировав специальную команду по уничтожению воображаемых монстров маленьких детей. Дело пошло в гору, они стали популярными в своем деле, пока один из монстров не оказался настоящим, страшным и действительно большим.



Страна: США, In The Dark Entertainment
Продолжительность: 01:31:56
Перевод: Любительский (двухголосый закадровый) | HiWay Grope

Файл
Кодек: MPEG-4 AVC/H.264
Качество: WEBRip 720p
Видео: 1280x720, 23.976 fps, ~4456 kbps, 0.202 bit/pixel
Аудио rus: AC3, 48 kHz, 6 ch, 384 Kbps

Реклама: присутствует

Семпл

General
Unique ID : 114475480344125528625985737641253947381 (0x561F2CF0CC4BD5877517B9A5AED047F5)
Complete name : E:Monsters.At.Large.2018.720p.WEBRip.HiWayGropeMonsters.At.Large.2018.720p.WEBRip.HiWayGrope.mkv
Format : Matroska
Format version : Version 4 / Version 2
File size : 3.17 GiB
Duration : 1h 31mn
Overall bit rate : 4 939 Kbps
Encoded date : UTC 2018-03-21 06:24:21
Writing application : mkvmerge v21.0.0 ('Tardigrades Will Inherit The Earth') 64-bit
Writing library : libebml v1.3.5 + libmatroska v1.4.8

Video
ID : 1
Format : AVC
Format/Info : Advanced Video Codec
Format profile : High@L4.1
Format settings, CABAC : Yes
Format settings, ReFrames : 9 frames
Codec ID : V_MPEG4/ISO/AVC
Duration : 1h 31mn
Bit rate : 4 456 Kbps
Width : 1 280 pixels
Height : 720 pixels
Display aspect ratio : 16:9
Frame rate mode : Constant
Frame rate : 23.976 (24000/1001) fps
Color space : YUV
Chroma subsampling : 4:2:0
Bit depth : 8 bits
Scan type : Progressive
Bits/(Pixel*Frame) : 0.202
Stream size : 2.86 GiB (90%)
Writing library : x264 core 146 r2538 121396c
Encoding settings : cabac=1 / ref=9 / deblock=1:-1:-1 / analyse=0x3:0x113 / me=umh / subme=10 / psy=1 / psy_rd=1.00:0.15 / mixed_ref=1 / me_range=32 / chroma_me=1 / trellis=2 / 8x8dct=1 / cqm=0 / deadzone=21,11 / fast_pskip=1 / chroma_qp_offset=-3 / threads=6 / lookahead_threads=1 / sliced_threads=0 / nr=0 / decimate=1 / interlaced=0 / bluray_compat=0 / constrained_intra=0 / bframes=8 / b_pyramid=2 / b_adapt=2 / b_bias=0 / direct=3 / weightb=1 / open_gop=0 / weightp=2 / keyint=250 / keyint_min=23 / scenecut=40 / intra_refresh=0 / rc=crf / mbtree=0 / crf=18.0 / qcomp=0.60 / qpmin=0 / qpmax=69 / qpstep=4 / ip_ratio=1.40 / pb_ratio=1.30 / aq=1:1.00
Language : Russian
Default : Yes
Forced : No
Color range : Limited
Color primaries : BT.709
Transfer characteristics : BT.709
Matrix coefficients : BT.709

Audio
ID : 2
Format : AC-3
Format/Info : Audio Coding 3
Mode extension : CM (complete main)
Format settings, Endianness : Big
Codec ID : A_AC3
Duration : 1h 31mn
Bit rate mode : Constant
Bit rate : 384 Kbps
Channel(s) : 6 channels
Channel positions : Front: L C R, Side: L R, LFE
Sampling rate : 48.0 KHz
Frame rate : 31.250 fps (1536 spf)
Compression mode : Lossy
Stream size : 253 MiB (8%)
Language : Russian
Default : Yes
Forced : No



Релиз от: HiWay Grope


_________________
Проголосуй за трекер Открытый торрент трекер - RUS-MEDIA.ORG

Проголосуй Открытый торрент трекер - RUS-MEDIA.ORG


Скачать книги и аудио книги через торрент


Вернуться к началу
 Профиль Отправить личное сообщение  
 
   Похожие торренты   Автор   Торрент   Размер 
В этой теме нет новых непрочитанных сообщений. Монстры на свободе / Monsters at Large [Семейный, 2018] WEBRip, Dvo

salma3

10 | 1

1.34 ГБ

В этой теме нет новых непрочитанных сообщений. Монстры на свободе / Monsters at Large [Семейный, 2018] WEB-DLRip, Mvo

salma3

69 | 2

1.37 ГБ

В этой теме нет новых непрочитанных сообщений. Монстры и люди / Monsters and Men [Драма, 2018] WEBRip, Dvo

salma3

0 | 0

1.29 ГБ

В этой теме нет новых непрочитанных сообщений. На пути к Грейс / Running for Grace [Мелодрама, семейный, 2018] WEBRip 720p, Dvo

salma3

0 | 0

2.61 ГБ

В этой теме нет новых непрочитанных сообщений. Последний настоящий мужчина / Last Man Standing [07х10 из 22] [Семейный, комедия, 2018] WEBRip 720p, Dvo [SunshineStudio]

salma3

0 | 0

4.14 ГБ

В этой теме нет новых непрочитанных сообщений. Монстры в лесах / Monsters in the Woods [ужасы, 2012] DVDRip, Mvo [Лицензия]

salma3

0 | 0

704.24 МБ

В этой теме нет новых непрочитанных сообщений. Монстры в лесах / Monsters in the Woods [ужасы, 2012] DVDRip, Mvo [Лицензия]

salma3

0 | 0

1.37 ГБ


Начать новую тему Ответить на тему  [ 1 сообщение ] 




Для Мосгорсуда, Роскомнадзора и рекламодателей:: rstracker[собака]yandex.ru
cron