Торрент файл
скачать торрент магнет ссылка Добавлен: 20 мар 2018, 22:17
Размер: 7.94 ГБ
Сидеров: 0
Личеров: 0
Статус: (salma3)
Автор

СообщениеДобавлено: 20 мар 2018, 22:17 

Не в сети
Супермодератор
Аватара пользователя
Дата регистрации:
15 фев 2012, 16:44
Возраст: 29
Спасибо: 7339 / 2147
Сообщения: 75613
Год выхода: 1996
Жанр: фантастика, боевик, триллер
Страна: Мексика, США
Продолжительность: 01:33:50
Перевод: Профессиональный многоголосый, авторский одноголосый
Режиссёр: Норберто Барба / Norberto Barba
В ролях: Марио Ван Пиблз, Бэрри Корбин, Уильям Сэдлер, Хайме Гомес, Демиан Бишир, Сейди Лопез, Абрахам Вердуско, Хоакин Гарридо, Уильям Уоллес, Эдриан Броуди

О фильме
Экранизация романа Роберта Мэйсона "Оружие". Он - универсальный солдат, способный сражаться и побеждать в любых условиях. У него нет семьи, нет друзей. Он похож на человека, но сделан из полимеров и микросхем. Он - Соло, машина с единственной программой - убивать. Но программа дает сбой. Соло начинает думать как человек. У него появляются человеческие чувства и друзья. Но жестокие военные, создавшие Соло, объявляют на него охоту. И Соло начинает беспощадную войну.



Файл
Качество: WEB-DL 1080p
Видео: MPEG-4 AVC, 1920x1080 (16:9), 10700 kbps, 23.976 fps
Аудио 1: Russian: 48 kHz, AC3, 5.1 ch, 384 kbps - MVO, Видеосервис
Аудио 2: Russian: 48 kHz, AC3, 2.0 ch, 192 kbps - AVO, С. Визгунов
Аудио 3: English: 48 kHz, EAC3, 5.1 ch, 640 kbps - Оригинал
Субтитры: Русские, английские, финские
Навигация по главам: есть

• Исходник видео WEB-DL Amazon STARZ - периодически появляется логотип

Общее
Уникальный идентификатор : 195321526544743830397315782313580827473 (0x92F18EC3D3E9A81CBF520D9E7B2A1351)
Полное имя : Соло.1996.AMZN.WEB-DL.1080p.mkv
Формат : Matroska
Версия формата : Version 2
Размер файла : 7,94 Гбайт
Продолжительность : 1 ч. 33 м.
Режим общего битрейта : Переменный
Общий поток : 12,1 Мбит/сек
Дата кодирования : UTC 2018-03-20 12:59:34
Программа кодирования : mkvmerge v5.8.0 ('No Sleep / Pillow') built on Sep 2 2012 15:37:04
Библиотека кодирования : libebml v1.2.3 + libmatroska v1.3.0

Видео
Идентификатор : 1
Формат : AVC
Формат/Информация : Advanced Video Codec
Профиль формата : High@L4
Параметр CABAC формата : Да
Параметр RefFrames формата : 4 кадра
Идентификатор кодека : V_MPEG4/ISO/AVC
Продолжительность : 1 ч. 33 м.
Вид битрейта : Переменный
Битрейт : 10,7 Мбит/сек
Максимальный битрейт : 15,0 Мбит/сек
Ширина : 1920 пикселей
Высота : 1080 пикселей
Соотношение сторон : 16:9
Режим частоты кадров : Постоянный
Частота кадров : 23,976 (24000/1001) кадра/сек
Цветовое пространство : YUV
Субдискретизация насыщенности : 4:2:0
Битовая глубина : 8 бит
Тип развёртки : Прогрессивная
Бит/(Пиксели*Кадры) : 0.214
Размер потока : 6,99 Гбайт (88%)
Язык : English
Default : Да
Forced : Нет
Цветовой диапазон : Limited
Основные цвета : BT.709
Характеристики трансфера : BT.709
Коэффициенты матрицы : BT.709

Аудио #1
Идентификатор : 2
Формат : AC-3
Формат/Информация : Audio Coding 3
Параметр Endianness формата : Big
Идентификатор кодека : A_AC3
Продолжительность : 1 ч. 33 м.
Вид битрейта : Постоянный
Битрейт : 384 Кбит/сек
Каналы : 6 каналов
Расположение каналов : Front: L C R, Side: L R, LFE
Частота : 48,0 КГц
Частота кадров : 31,250 кадров/сек (1536 SPF)
Битовая глубина : 16 бит
Метод сжатия : С потерями
Размер потока : 258 Мбайт (3%)
Заголовок : MVO | Видеосервис
Язык : Russian
Default : Да
Forced : Нет

Аудио #2
Идентификатор : 3
Формат : AC-3
Формат/Информация : Audio Coding 3
Параметр Endianness формата : Big
Идентификатор кодека : A_AC3
Продолжительность : 1 ч. 33 м.
Вид битрейта : Постоянный
Битрейт : 192 Кбит/сек
Каналы : 2 канала
Расположение каналов : Front: L R
Частота : 48,0 КГц
Частота кадров : 31,250 кадров/сек (1536 SPF)
Битовая глубина : 16 бит
Метод сжатия : С потерями
Размер потока : 129 Мбайт (2%)
Заголовок : AVO | С. Визгунов
Язык : Russian
Default : Нет
Forced : Нет

Аудио #3
Идентификатор : 4
Формат : E-AC-3
Формат/Информация : Enhanced Audio Coding 3
Параметр Endianness формата : Big
Идентификатор кодека : A_EAC3
Продолжительность : 1 ч. 33 м.
Вид битрейта : Постоянный
Битрейт : 640 Кбит/сек
Каналы : 6 каналов
Расположение каналов : Front: L C R, Side: L R, LFE
Частота : 48,0 КГц
Частота кадров : 187,500 кадров/сек (256 SPF)
Метод сжатия : С потерями
Задержка видео : 16 мс.
Размер потока : 430 Мбайт (5%)
Заголовок : Original
Язык : English
Default : Нет
Forced : Нет

Текст #1
Идентификатор : 5
Формат : UTF-8
Идентификатор кодека : S_TEXT/UTF8
Идентификатор кодека/Информация : UTF-8 Plain Text
Язык : Russian
Default : Нет
Forced : Нет

Текст #2
Идентификатор : 6
Формат : UTF-8
Идентификатор кодека : S_TEXT/UTF8
Идентификатор кодека/Информация : UTF-8 Plain Text
Язык : English
Default : Нет
Forced : Нет

Текст #3
Идентификатор : 7
Формат : UTF-8
Идентификатор кодека : S_TEXT/UTF8
Идентификатор кодека/Информация : UTF-8 Plain Text
Язык : Finnish
Default : Нет
Forced : Нет

Меню
00:00:00.000 : en:Chapter 1
00:08:33.584 : en:Chapter 2
00:14:39.783 : en:Chapter 3
00:22:01.391 : en:Chapter 4
00:23:59.842 : en:Chapter 5
00:28:33.783 : en:Chapter 6
00:31:34.630 : en:Chapter 7
00:37:22.811 : en:Chapter 8
00:39:47.122 : en:Chapter 9
00:46:19.848 : en:Chapter 10
00:47:57.695 : en:Chapter 11
00:50:07.158 : en:Chapter 12
00:51:06.217 : en:Chapter 13
00:54:03.561 : en:Chapter 14
00:55:16.801 : en:Chapter 15
00:56:27.204 : en:Chapter 16
01:01:53.364 : en:Chapter 17
01:03:44.308 : en:Chapter 18
01:09:45.168 : en:Chapter 19
01:11:28.438 : en:Chapter 20
01:13:23.386 : en:Chapter 21
01:13:57.253 : en:Chapter 22
01:17:04.440 : en:Chapter 23
01:17:54.324 : en:Chapter 24
01:20:01.784 : en:Chapter 25
01:22:24.427 : en:Chapter 26
01:25:53.969 : en:Chapter 27
01:28:53.983 : en:Chapter 28


_________________
Проголосуй за трекер Открытый торрент трекер - RUS-MEDIA.ORG

Проголосуй Открытый торрент трекер - RUS-MEDIA.ORG


Вернуться к началу
 Профиль Отправить личное сообщение  
 
   Похожие торренты   Автор   Торрент   Размер 
В этой теме нет новых непрочитанных сообщений. Хан Соло: Звёздные Войны. Истории / Solo: A Star Wars Story [фантастика, фэнтези, боевик, 2018] BDRip 1080p, Dub [iTunes]

salma3

0 | 0

14.95 ГБ

В этой теме нет новых непрочитанных сообщений. Хан Соло: Звёздные Войны. Истории / Solo: A Star Wars Story [Фантастика, фэнтези, боевик, 2018] BDRemux 1080p, Dub [Лицензия] [3D-Video]

salma3

0 | 0

38.63 ГБ

В этой теме нет новых непрочитанных сообщений. Хан Соло: Звёздные Войны. Истории / Solo: A Star Wars Story [Фантастика, фэнтези, боевик, 2018] BDRip 1080p, Dub [Локализованная версия] [Лицензия]

salma3

0 | 0

7.75 ГБ

В этой теме нет новых непрочитанных сообщений. Хан Соло: Звёздные Войны. Истории / Solo: A Star Wars Story [Фантастика, фэнтези, боевик, 2018] Blu-ray CEE, Dub [Лицензия]

salma3

0 | 0

37.17 ГБ

В этой теме нет новых непрочитанных сообщений. Хан Соло: Звёздные Войны. Истории / Solo: A Star Wars Story [Фантастика, фэнтези, боевик, 2018] BDRip, Dub [iTunes]

salma3

0 | 0

2.18 ГБ

В этой теме нет новых непрочитанных сообщений. Хан Соло: Звёздные Войны. Истории / Solo: A Star Wars Story [Фантастика, фэнтези, боевик, 2018] BDRip, Dub [iTunes]

salma3

0 | 0

1.46 ГБ

В этой теме нет новых непрочитанных сообщений. Хан Соло: Звёздные Войны. Истории / Solo: A Star Wars Story [фантастика, фэнтези, боевик, 2018] HDRip, Dub [iTunes]

salma3

0 | 0

1.46 ГБ


Начать новую тему Ответить на тему  [ 1 сообщение ] 




Для Мосгорсуда, Роскомнадзора и рекламодателей:: mosgorsud-torrent[собачка]yandex.ru
cron