Торрент файл
скачать торрент магнет ссылка Добавлен: 16 мар 2018, 17:43
Размер: 12.2 ГБ
Сидеров: 0
Личеров: 0
Статус: (salma3)
Автор

СообщениеДобавлено: 16 мар 2018, 17:43 

Не в сети
Супермодератор
Аватара пользователя
Дата регистрации:
15 фев 2012, 16:44
Возраст: 28
Спасибо: 7061 / 2147
Сообщения: 59181
Год выхода: 2009
Жанр: Ужасы, комедия
Режиссер: Карин Кусама

В ролях: Меган Фокс, Аманда Сайфред, Джонни Симмонс, Адам Броди, Дж.К. Симмонс, Кайл Галлнер, Крис Прэтт, Хуан Ридингер


О фильме:
В маленьком захолустном городке с милым названием «Чертов котел» живут две подруги – первая красавица школы Дженифер и совсем неприметная Ниди. Однажды вечером подруги отправляются в местный ресторан на концерт приезжей рок-группы, но через некоторое время в ресторане происходит пожар и Дженифер уезжает с рокерами на их фургоне. А на следующее утро в городе происходит первое зверское убийство. После ночного приключения Дженифер резко меняется и начинает методично убивать парней. Но происшедшие изменения с Дженифер не замечает никто, кроме ее подруги Ниди. Она понимает, что в Дженифер вселился злой дух и теперь на хрупкие плечи Ниди ложится проблема, как изгнать его из подруги



Страна: США
Продолжительность: 01:47:29
Перевод: Дублированный [Лицензия]

Качество: BDRip 1080p
Видео: MPEG-4 AVC, 1920x1038, 14.0 Mbit/s, 23.976 fps
Аудио01: 48 kHz, DTS, 5.1, 768 Kbps | Дублированный | RUS
Аудио02: 48 kHz, DTS, 5.1, 1510 Kbps | Оригинал | ENG
Субтитры: Русские (forced, full), английские[/center]

General
Unique ID : 60732674116586293011184476856958027421 (0x2DB0B0047B4D423E0B5A508980AF869D)
Complete name : C:Video111Jennifer.s.Body.2009.BDRip.1080p.ExKinoRay.mkv
Format : Matroska
Format version : Version 4 / Version 2
File size : 12.2 GiB
Duration : 1 h 47 min
Overall bit rate : 16.2 Mb/s
Movie name : Jennifer.s.Body 2009 from ExKinoRay
Encoded date : UTC 2018-03-16 13:26:18
Writing application : mkvmerge v21.0.0 ('Tardigrades Will Inherit The Earth') 64-bit
Writing library : libebml v1.3.5 + libmatroska v1.4.8

Video
ID : 1
Format : AVC
Format/Info : Advanced Video Codec
Format profile : High@L4.1
Format settings : CABAC / 4 Ref Frames
Format settings, CABAC : Yes
Format settings, ReFrames : 4 frames
Codec ID : V_MPEG4/ISO/AVC
Duration : 1 h 47 min
Bit rate : 14.0 Mb/s
Width : 1 920 pixels
Height : 1 038 pixels
Display aspect ratio : 1.85:1
Frame rate mode : Constant
Frame rate : 23.976 (24000/1001) FPS
Color space : YUV
Chroma subsampling : 4:2:0
Bit depth : 8 bits
Scan type : Progressive
Bits/(Pixel*Frame) : 0.293
Stream size : 10.5 GiB (86%)
Writing library : x264 core 148 r2705 3f5ed56
Encoding settings : cabac=1 / ref=4 / deblock=1:-2:-2 / analyse=0x3:0x133 / me=umh / subme=11 / psy=1 / psy_rd=1.05:0.05 / mixed_ref=1 / me_range=48 / chroma_me=1 / trellis=2 / 8x8dct=1 / cqm=0 / deadzone=21,11 / fast_pskip=0 / chroma_qp_offset=-3 / threads=24 / lookahead_threads=4 / sliced_threads=0 / nr=0 / decimate=0 / interlaced=0 / bluray_compat=0 / constrained_intra=0 / bframes=8 / b_pyramid=2 / b_adapt=2 / b_bias=0 / direct=3 / weightb=1 / open_gop=0 / weightp=2 / keyint=240 / keyint_min=23 / scenecut=40 / intra_refresh=0 / rc_lookahead=50 / rc=2pass / mbtree=0 / bitrate=13980 / ratetol=1.0 / qcomp=0.60 / qpmin=0 / qpmax=69 / qpstep=4 / cplxblur=20.0 / qblur=0.5 / vbv_maxrate=50000 / vbv_bufsize=62500 / nal_hrd=none / filler=0 / ip_ratio=1.40 / pb_ratio=1.30 / aq=3:0.80
Language : English
Default : Yes
Forced : No

Audio #1
ID : 2
Format : DTS
Format/Info : Digital Theater Systems
Codec ID : A_DTS
Duration : 1 h 47 min
Bit rate mode : Constant
Bit rate : 768 kb/s
Channel(s) : 6 channels
Channel positions : Front: L C R, Side: L R, LFE
Sampling rate : 48.0 kHz
Frame rate : 93.750 FPS (512 SPF)
Bit depth : 24 bits
Compression mode : Lossy
Stream size : 590 MiB (5%)
Title : Dub [License]
Language : Russian
Default : Yes
Forced : Yes

Audio #2
ID : 3
Format : DTS
Format/Info : Digital Theater Systems
Codec ID : A_DTS
Duration : 1 h 47 min
Bit rate mode : Constant
Bit rate : 1 509 kb/s
Channel(s) : 6 channels
Channel positions : Front: L C R, Side: L R, LFE
Sampling rate : 48.0 kHz
Frame rate : 93.750 FPS (512 SPF)
Bit depth : 24 bits
Compression mode : Lossy
Stream size : 1.13 GiB (9%)
Title : Original
Language : English
Default : No
Forced : No

Text #1
ID : 4
Format : UTF-8
Codec ID : S_TEXT/UTF8
Codec ID/Info : UTF-8 Plain Text
Duration : 1 h 39 min
Bit rate : 2 b/s
Count of elements : 41
Stream size : 2.03 KiB (0%)
Title : forced
Language : Russian
Default : Yes
Forced : Yes

Text #2
ID : 5
Format : UTF-8
Codec ID : S_TEXT/UTF8
Codec ID/Info : UTF-8 Plain Text
Duration : 1 h 46 min
Bit rate : 80 b/s
Count of elements : 1094
Stream size : 63.3 KiB (0%)
Title : full
Language : Russian
Default : No
Forced : No

Text #3
ID : 6
Format : UTF-8
Codec ID : S_TEXT/UTF8
Codec ID/Info : UTF-8 Plain Text
Duration : 1 h 46 min
Bit rate : 56 b/s
Count of elements : 1259
Stream size : 43.7 KiB (0%)
Title : full
Language : English
Default : No
Forced : No

Menu
00:00:00.000 : en:00:00:00.000
00:05:23.448 : en:00:05:23.448
00:09:56.262 : en:00:09:56.262
00:14:58.022 : en:00:14:58.022
00:20:05.538 : en:00:20:05.538
00:23:23.277 : en:00:23:23.277
00:25:53.343 : en:00:25:53.343
00:31:20.253 : en:00:31:20.253
00:34:53.591 : en:00:34:53.591
00:37:26.953 : en:00:37:26.953
00:41:07.173 : en:00:41:07.173
00:44:25.204 : en:00:44:25.204
00:47:15.124 : en:00:47:15.124
00:51:32.297 : en:00:51:32.297
00:59:09.671 : en:00:59:09.671
01:06:43.082 : en:01:06:43.082
01:10:43.656 : en:01:10:43.656
01:13:10.970 : en:01:13:10.970
01:19:22.883 : en:01:19:22.883
01:25:54.274 : en:01:25:54.274
01:30:31.926 : en:01:30:31.926
01:33:23.640 : en:01:33:23.640
01:38:18.142 : en:01:38:18.142
01:41:09.980 : en:01:41:09.980


Релиз от: Автор релиза:


_________________
Проголосуй за трекер Открытый торрент трекер - RUS-MEDIA.ORG

Проголосуй Открытый торрент трекер - RUS-MEDIA.ORG


Вернуться к началу
 Профиль Отправить личное сообщение  
 
   Похожие торренты   Автор   Торрент   Размер 
В этой теме нет новых непрочитанных сообщений. Тело Дженнифер / Jennifer's Body [ужасы, комедия, 2009] BDRip-HEVC 1080p, Dub [Unrated Cut]

salma3

10 | 12

6.25 ГБ

В этой теме нет новых непрочитанных сообщений. Тело Дженнифер / Jennifer's Body [Ужасы, триллер, комедия, 2009] Blu-ray 1080p, Dub

salma3

0 | 12

44.39 ГБ

В этой теме нет новых непрочитанных сообщений. Расплавленное тело / Body Melt [фантастика, ужасы, комедия, 1993] BDRip 1080p, Avo

salma3

46 | 19

7.4 ГБ

В этой теме нет новых непрочитанных сообщений. Дженнифер 8 / Jennifer Eight [Триллер, драма, криминал, детектив, 1992] BDRip 1080p, Mvo

salma3

41 | 33

21.39 ГБ

В этой теме нет новых непрочитанных сообщений. Расплавленное тело / Body Melt [фантастика, ужасы, комедия, 1993] HDRip-AVC, Avo

salma3

33 | 2

744.2 МБ

В этой теме нет новых непрочитанных сообщений. Дженнифер 8 / Jennifer Eight [Триллер, детектив, драма, криминал, 1992] BDRemux 1080p, Mvo+Dvo+Avo+Sub

salma3

2 | 9

34.99 ГБ

В этой теме нет новых непрочитанных сообщений. Расчлененное тело / Body Parts [ужасы, триллер, 1991] HDTV 1080i, Mvo

salma3

25 | 11

2.78 ГБ


Начать новую тему Ответить на тему  [ 1 сообщение ] 




Для Мосгорсуда, Роскомнадзора и рекламодателей:: mosgorsud-torrent[собачка]yandex.ru
cron