Торрент файл
скачать торрент магнет ссылка Добавлен: 15 мар 2018, 17:51
Размер: 11.73 ГБ
Сидеров: 0
Личеров: 0
Статус: (salma3)
Автор

СообщениеДобавлено: 15 мар 2018, 17:51 

В сети
Супермодератор
Аватара пользователя
Дата регистрации:
15 фев 2012, 16:44
Возраст: 28
Спасибо: 7058 / 2147
Сообщения: 58832
Год выхода: 2012
Жанр: Боевик, триллер, драма
Режиссер: Адриан Грюнберг

В ролях: Мэл Гибсон, Кевин Эрнандес, Долорес Эредия, Хесус Очоа, Даниэль Хименес Качо, Питер Герети, Роберто Соса, Петер Стормаре, Боб Гантон, Марио Сарагоса

О фильме:
Лента расскажет о пойманном мексиканскими властями преступнике, заключенном в полную наркотиков и насилия тюрьму...



Страна: CША
Продолжительность: 01:35:59
Перевод: Дублированный, авторский одноголосый

Файл
Кодек: х.264
Качество: BDRip 1080p
Видео: 1920x1080, 23.976 fps, 6921 kbps
Звук:
Russian: DTS / 5.1 / 1509 kbps - Профессиональный (дублированный)
Ukrainian: DTS / 5.1 / 1509 kbps - Профессиональный (дублированный)
Russian: DTS / 5.1 / 1509 kbps - Есарев
Russian: DTS / 5.1 / 1509 kbps - Немахов
Russian: DTS / 5.1 / 1509 kbps - Гаврилов
Russian: DTS / 5.1 / 1509 kbps - Багичев
English: DTS / 5.1 / 1509 kbps
Субтитры: Русские, английские

Unique ID : 153324636384059780099910425045900660570 (0x7359403735B4CD9875D88A6C95B30F5A)
Complete name : F:Get the Gringo.2012.x264.FHDRip.1080p.stimco.mkv
Format : Matroska
Format version : Version 4 / Version 2
File size : 11.7 GiB
Duration : 1 h 35 min
Overall bit rate : 17.5 Mb/s
Movie name : =Get the Gringo=
Encoded date : UTC 2018-03-14 19:08:02
Writing application : mkvmerge v21.0.0 ('Tardigrades Will Inherit The Earth') 64-bit
Writing library : libebml v1.3.5 + libmatroska v1.4.8
Cover : Yes
Attachments : cover.jpg

Video
ID : 1
Format : AVC
Format/Info : Advanced Video Codec
Format profile : High@L4.1
Format settings : CABAC / 5 Ref Frames
Format settings, CABAC : Yes
Format settings, ReFrames : 5 frames
Codec ID : V_MPEG4/ISO/AVC
Duration : 1 h 35 min
Bit rate : 6 921 kb/s
Width : 1 920 pixels
Height : 800 pixels
Display aspect ratio : 2.40:1
Frame rate mode : Constant
Frame rate : 23.976 (24000/1001) FPS
Color space : YUV
Chroma subsampling : 4:2:0
Bit depth : 8 bits
Scan type : Progressive
Bits/(Pixel*Frame) : 0.188
Stream size : 4.64 GiB (40%)
Title : AVC [8433 kbps]
Writing library : x264 core 155 r2901 7d0ff22
Encoding settings : cabac=1 / ref=5 / deblock=1:-3:-3 / analyse=0x3:0x133 / me=umh / subme=10 / psy=1 / psy_rd=1.00:0.10 / mixed_ref=1 / me_range=45 / chroma_me=1 / trellis=2 / 8x8dct=1 / cqm=0 / deadzone=21,11 / fast_pskip=1 / chroma_qp_offset=-2 / threads=6 / lookahead_threads=1 / sliced_threads=0 / nr=0 / decimate=1 / interlaced=0 / bluray_compat=0 / constrained_intra=0 / bframes=8 / b_pyramid=2 / b_adapt=2 / b_bias=0 / direct=1 / weightb=1 / open_gop=0 / weightp=2 / keyint=240 / keyint_min=23 / scenecut=40 / intra_refresh=0 / rc_lookahead=70 / rc=crf / mbtree=1 / crf=17.5 / qcomp=0.60 / qpmin=0 / qpmax=65 / qpstep=4 / vbv_maxrate=62500 / vbv_bufsize=78125 / crf_max=0.0 / nal_hrd=none / filler=0 / ip_ratio=1.30 / aq=1:0.80
Language : English
Default : Yes
Forced : No

Audio #1
ID : 2
Format : DTS
Format/Info : Digital Theater Systems
Codec ID : A_DTS
Duration : 1 h 35 min
Bit rate mode : Constant
Bit rate : 1 509 kb/s
Channel(s) : 6 channels
Channel positions : Front: L C R, Side: L R, LFE
Sampling rate : 48.0 kHz
Frame rate : 93.750 FPS (512 SPF)
Bit depth : 16 bits
Compression mode : Lossy
Stream size : 1.01 GiB (9%)
Title : Dub
Language : Russian
Default : No
Forced : No

Audio #2
ID : 3
Format : DTS
Format/Info : Digital Theater Systems
Codec ID : A_DTS
Duration : 1 h 35 min
Bit rate mode : Constant
Bit rate : 1 509 kb/s
Channel(s) : 6 channels
Channel positions : Front: L C R, Side: L R, LFE
Sampling rate : 48.0 kHz
Frame rate : 93.750 FPS (512 SPF)
Bit depth : 16 bits
Compression mode : Lossy
Stream size : 1.01 GiB (9%)
Title : Dub
Language : Ukrainian
Default : No
Forced : No

Audio #3
ID : 4
Format : DTS
Format/Info : Digital Theater Systems
Codec ID : A_DTS
Duration : 1 h 35 min
Bit rate mode : Constant
Bit rate : 1 509 kb/s
Channel(s) : 6 channels
Channel positions : Front: L C R, Side: L R, LFE
Sampling rate : 48.0 kHz
Frame rate : 93.750 FPS (512 SPF)
Bit depth : 24 bits
Compression mode : Lossy
Stream size : 1.01 GiB (9%)
Title : AVO Esarev
Language : Russian
Default : Yes
Forced : No

Audio #4
ID : 5
Format : DTS
Format/Info : Digital Theater Systems
Codec ID : A_DTS
Duration : 1 h 35 min
Bit rate mode : Constant
Bit rate : 1 509 kb/s
Channel(s) : 6 channels
Channel positions : Front: L C R, Side: L R, LFE
Sampling rate : 48.0 kHz
Frame rate : 93.750 FPS (512 SPF)
Bit depth : 24 bits
Compression mode : Lossy
Stream size : 1.01 GiB (9%)
Title : AVO Nemahov
Language : Russian
Default : No
Forced : No

Audio #5
ID : 6
Format : DTS
Format/Info : Digital Theater Systems
Codec ID : A_DTS
Duration : 1 h 35 min
Bit rate mode : Constant
Bit rate : 1 509 kb/s
Channel(s) : 6 channels
Channel positions : Front: L C R, Side: L R, LFE
Sampling rate : 48.0 kHz
Frame rate : 93.750 FPS (512 SPF)
Bit depth : 24 bits
Compression mode : Lossy
Stream size : 1.01 GiB (9%)
Title : AVO Gavrilov
Language : Russian
Default : No
Forced : No

Audio #6
ID : 7
Format : DTS
Format/Info : Digital Theater Systems
Codec ID : A_DTS
Duration : 1 h 35 min
Bit rate mode : Constant
Bit rate : 1 509 kb/s
Channel(s) : 6 channels
Channel positions : Front: L C R, Side: L R, LFE
Sampling rate : 48.0 kHz
Frame rate : 93.750 FPS (512 SPF)
Bit depth : 24 bits
Compression mode : Lossy
Stream size : 1.01 GiB (9%)
Title : AVO Bagichev
Language : Russian
Default : No
Forced : No

Audio #7
ID : 8
Format : DTS
Format/Info : Digital Theater Systems
Codec ID : A_DTS
Duration : 1 h 35 min
Bit rate mode : Constant
Bit rate : 1 509 kb/s
Channel(s) : 6 channels
Channel positions : Front: L C R, Side: L R, LFE
Sampling rate : 48.0 kHz
Frame rate : 93.750 FPS (512 SPF)
Bit depth : 24 bits
Compression mode : Lossy
Stream size : 1.01 GiB (9%)
Language : English
Default : No
Forced : No

Text #1
ID : 9
Format : UTF-8
Codec ID : S_TEXT/UTF8
Codec ID/Info : UTF-8 Plain Text
Duration : 1 h 29 min
Bit rate : 84 b/s
Count of elements : 917
Stream size : 55.2 KiB (0%)
Language : Russian
Default : No
Forced : No

Text #2
ID : 10
Format : UTF-8
Codec ID : S_TEXT/UTF8
Codec ID/Info : UTF-8 Plain Text
Duration : 1 h 27 min
Bit rate : 52 b/s
Count of elements : 1223
Stream size : 33.9 KiB (0%)
Language : English
Default : No
Forced : No

Menu
00:00:00.000 : en:00:00:00.000
00:06:04.781 : en:00:06:04.781
00:10:42.100 : en:00:10:42.100
00:13:47.576 : en:00:13:47.576
00:16:02.794 : en:00:16:02.794
00:18:40.744 : en:00:18:40.744
00:23:49.970 : en:00:23:49.970
00:26:29.462 : en:00:26:29.462
00:30:06.262 : en:00:30:06.262
00:35:37.594 : en:00:35:37.594
00:38:36.230 : en:00:38:36.230
00:40:50.697 : en:00:40:50.697
00:45:16.130 : en:00:45:16.130
00:51:05.478 : en:00:51:05.478
00:54:01.278 : en:00:54:01.278
00:57:31.197 : en:00:57:31.197
01:00:53.398 : en:01:00:53.398
01:05:44.273 : en:01:05:44.273
01:09:17.862 : en:01:09:17.862
01:13:33.158 : en:01:13:33.158
01:18:43.092 : en:01:18:43.092
01:23:20.703 : en:01:23:20.703
01:25:49.185 : en:01:25:49.185
01:28:19.377 : en:01:28:19.377


_________________
Проголосуй за трекер Открытый торрент трекер - RUS-MEDIA.ORG

Проголосуй Открытый торрент трекер - RUS-MEDIA.ORG


Вернуться к началу
 Профиль Отправить личное сообщение  
 
   Похожие торренты   Автор   Торрент   Размер 
В этой теме нет новых непрочитанных сообщений. Лондонские каникулы / A Royal Night Out (Джулиан Джаррольд) [триллер, драма, мелодрама, 2015] BDRip 1080p, Dub [iTunes]

Dracon

139 | 24

7.75 ГБ

В этой теме нет новых непрочитанных сообщений. Идеальные каникулы / A Perfect Vacation [боевик, триллер, 2015] BDRip 720p, Mvo

salma3

2190 | 120

3.7 ГБ

В этой теме нет новых непрочитанных сообщений. Контрабанда / Contraband [боевик, триллер, драма, 2012] BDRip-HEVC 1080p, Dub

salma3

16 | 3

5.46 ГБ

В этой теме нет новых непрочитанных сообщений. Схватка / The Grey (Джо Карнахан) [2012, боевик, триллер, драма, приключения, BDRip (1080p)]

marya111

0 | 0

8.76 ГБ

В этой теме нет новых непрочитанных сообщений. Вирусный фактор / Jik zin / The Viral Factor [Боевик, триллер, драма, 2012] BDRip 1080p, Avo

salma3

79 | 28

12.73 ГБ

В этой теме нет новых непрочитанных сообщений. Код доступа «София» / Sofia / Assassin's Bullet [боевик, триллер, драма, 2012] BDRip 1080p, Mvo

salma3

34 | 5

8.93 ГБ

В этой теме нет новых непрочитанных сообщений. Одним меньше / Один уже покойник / Dead Man Down [триллер, драма, криминал, боевик, 2012] BDRip 1080p, Dub+Avo+Sub

salma3

41 | 25

12.5 ГБ


Начать новую тему Ответить на тему  [ 1 сообщение ] 




Для Мосгорсуда, Роскомнадзора и рекламодателей:: mosgorsud-torrent[собачка]yandex.ru
cron