Торрент файл
скачать торрент магнет ссылка Добавлен: 15 мар 2018, 03:24
Размер: 8.54 ГБ
Сидеров: 0
Личеров: 0
Статус: (salma3)
Автор

СообщениеДобавлено: 15 мар 2018, 03:24 

Не в сети
Супермодератор
Аватара пользователя
Дата регистрации:
15 фев 2012, 16:44
Возраст: 29
Спасибо: 7319 / 2147
Сообщения: 73176
Год выпуска: 2000
Выпущено: США
Жанр: Фантастика, триллер, драма
Режиссер: Грегори Хоблит

В ролях: Дэннис Куэйд, Джеймс Кэвизел, Шон Дойл, Элизабет Митчелл, Андре Брогер, Ноа Эммерик, Мелисса Эррико, Дэниэл Хенсон, Джордан Бриджес, Стефен Джофф

О фильме: Представьте себе: вы получили возможность вернуться в прошлое и изменить в нем одно-единственное событие. Что бы вы выбрали? Полицейский Джон Салливан не сомневался ни минуты. 12 октября 1969 года в огне погиб его отец — бесстрашный пожарный. Еще ребенком Джон пытался представить себе, что он мог сделать, чтобы предотвратить трагедию. И вот такая возможность у него появилась. Однако, все оказалось далеко не так просто. Вторгшись в прошлое, Джон вызвал неожиданную реакцию временного континуума: спасение отца повлекло за собой серию убийств. Теперь Джон и его отец Фрэнк, связанные только радиоволной, пытаются остановить эти преступления. Но каждый раз, когда Фрэнк изменяет что-либо в своем времени, Джон просыпается в новом мире…



Продолжительность: 01:58:35
Перевод: Дублированный, профессиональный многоголосый, профессиональный двухголосый, авторский
Субтитры: Русские, английские, финские
Навигация по главам: Есть

Файл
Качество: WEB-DLRip 720p
Видео: MPEG-4 AVC, 6341 Кбит/сек, 1280x720, 23,976 кадра/сек
Аудио #1: AC3, 6 ch, 448 Кбит/сек | Русский, профессиональный (полное дублирование) R5, Невафильм
Аудио #2: AC3, 6 ch, 448 Кбит/сек | Русский, профессиональный (многоголосый закадровый) Киномания
Аудио #3: AC3, 6 ch, 448 Кбит/сек | Русский, профессиональный (многоголосый закадровый) CP-Digital
Аудио #4: AC3, 2 ch, 192 Кбит/сек | Русский, профессиональный (многоголосый закадровый) ТВ3, НТВ+
Аудио #5: AC3, 6 ch, 448 Кбит/сек | Русский, авторский (одноголосый закадровый) Дмитрий Есарев
Аудио #6: AC3, 6 ch, 448 Кбит/сек | Русский, авторский (одноголосый закадровый) Юрий Живов
Аудио #7: AC3, 6 ch, 448 Кбит/сек | Русский, авторский (одноголосый закадровый) Андрей Гаврилов
Аудио #8: AC3, 6 ch, 448 Кбит/сек | Русский, авторский (одноголосый закадровый) Сергей Визгунов
Аудио #9: EAC3, 6 ch, 640 Кбит/сек | Английский, оригинал

Релиз от:

сэмпл

x264 [info]: frame I:1088 Avg QP:14.43 size:108435
x264 [info]: frame P:42283 Avg QP:16.21 size: 55024
x264 [info]: frame B:127214 Avg QP:18.06 size: 25083
-----------------------------------------------------
Общее
Уникальный идентификатор : 181957624739711414874478274273841693284 (0x88E3C38906486E55A28400BC66B2C264)
Полное имя : Радиоволна.2000.WEB-DLRip.720p.KORSAR.Open.Matte.mkv
Формат : Matroska
Версия формата : Version 2
Размер файла : 8,54 Гбайт
Продолжительность : 1 ч. 58 м.
Общий поток : 10,3 Мбит/сек
Дата кодирования : UTC 2018-02-19 03:50:05
Программа кодирования : mkvmerge v5.8.0 ('No Sleep / Pillow') built on Sep 2 2012 15:37:04
Библиотека кодирования : libebml v1.2.3 + libmatroska v1.3.0

Видео
Идентификатор : 1
Формат : AVC
Формат/Информация : Advanced Video Codec
Профиль формата : High@L4.1
Настройки формата : CABAC / 9 Ref Frames
Параметр CABAC формата : Да
Параметр RefFrames формата : 9 кадров
Идентификатор кодека : V_MPEG4/ISO/AVC
Продолжительность : 1 ч. 58 м.
Битрейт : 6341 Кбит/сек
Ширина : 1280 пикселей
Высота : 720 пикселей
Соотношение сторон : 16:9
Режим частоты кадров : Постоянный
Частота кадров : 23,976 (24000/1001) кадра/сек
Цветовое пространство : YUV
Субдискретизация насыщенности : 4:2:0
Битовая глубина : 8 бит
Тип развёртки : Прогрессивная
Бит/(Пиксели*Кадры) : 0.287
Размер потока : 5,08 Гбайт (60%)
Заголовок : RIP | MZMA
Библиотека кодирования : x264 core 152 r2851kMod ba24899
Настройки программы : cabac=1 / ref=9 / deblock=1:-3:-2 / analyse=0x3:0x113 / me=umh / subme=11 / psy=1 / fade_compensate=0.00 / psy_rd=0.90:0.05 / mixed_ref=1 / me_range=48 / chroma_me=1 / trellis=2 / 8x8dct=1 / cqm=0 / deadzone=21,11 / fast_pskip=0 / chroma_qp_offset=-3 / threads=6 / lookahead_threads=1 / sliced_threads=0 / nr=0 / decimate=0 / interlaced=0 / bluray_compat=0 / constrained_intra=0 / bframes=16 / b_pyramid=2 / b_adapt=2 / b_bias=0 / direct=3 / weightb=1 / open_gop=0 / weightp=2 / keyint=240 / keyint_min=23 / scenecut=40 / intra_refresh=0 / rc_lookahead=40 / rc=2pass / mbtree=0 / bitrate=6341 / ratetol=1.0 / qcomp=0.60 / qpmin=0 / qpmax=69 / qpstep=4 / cplxblur=20.0 / qblur=0.5 / vbv_maxrate=50000 / vbv_bufsize=62500 / nal_hrd=none / filler=0 / ip_ratio=1.25 / pb_ratio=1.30 / aq=3:0.90
Язык : English
Default : Да
Forced : Нет
Цветовой диапазон : Limited
Основные цвета : BT.709
Характеристики трансфера : BT.709
Коэффициенты матрицы : BT.709

Аудио #1
Идентификатор : 2
Формат : AC-3
Формат/Информация : Audio Coding 3
Идентификатор кодека : A_AC3
Продолжительность : 1 ч. 58 м.
Вид битрейта : Постоянный
Битрейт : 448 Кбит/сек
Каналы : 6 каналов
Расположение каналов : Front: L C R, Side: L R, LFE
Частота : 48,0 КГц
Частота кадров : 31,250 кадров/сек (1536 SPF)
Битовая глубина : 16 бит
Метод сжатия : С потерями
Размер потока : 380 Мбайт (4%)
Заголовок : DUB | R5, Невафильм
Язык : Russian
По умолчанию : Да
Принудительно : Нет

Аудио #2
Идентификатор : 3
Формат : AC-3
Формат/Информация : Audio Coding 3
Идентификатор кодека : A_AC3
Продолжительность : 1 ч. 58 м.
Вид битрейта : Постоянный
Битрейт : 448 Кбит/сек
Каналы : 6 каналов
Расположение каналов : Front: L C R, Side: L R, LFE
Частота : 48,0 КГц
Частота кадров : 31,250 кадров/сек (1536 SPF)
Битовая глубина : 16 бит
Метод сжатия : С потерями
Размер потока : 380 Мбайт (4%)
Заголовок : MVO | Киномания
Язык : Russian
По умолчанию : Нет
Принудительно : Нет

Аудио #3
Идентификатор : 4
Формат : AC-3
Формат/Информация : Audio Coding 3
Идентификатор кодека : A_AC3
Продолжительность : 1 ч. 58 м.
Вид битрейта : Постоянный
Битрейт : 448 Кбит/сек
Каналы : 6 каналов
Расположение каналов : Front: L C R, Side: L R, LFE
Частота : 48,0 КГц
Частота кадров : 31,250 кадров/сек (1536 SPF)
Битовая глубина : 16 бит
Метод сжатия : С потерями
Размер потока : 380 Мбайт (4%)
Заголовок : MVO | CP-Digital
Язык : Russian
По умолчанию : Нет
Принудительно : Нет

Аудио #4
Идентификатор : 5
Формат : AC-3
Формат/Информация : Audio Coding 3
Идентификатор кодека : A_AC3
Продолжительность : 1 ч. 58 м.
Вид битрейта : Постоянный
Битрейт : 192 Кбит/сек
Каналы : 2 канала
Расположение каналов : Front: L R
Частота : 48,0 КГц
Частота кадров : 31,250 кадров/сек (1536 SPF)
Битовая глубина : 16 бит
Метод сжатия : С потерями
Размер потока : 163 Мбайт (2%)
Заголовок : MVO | ТВ3, НТВ+
Язык : Russian
По умолчанию : Нет
Принудительно : Нет

Аудио #5
Идентификатор : 6
Формат : AC-3
Формат/Информация : Audio Coding 3
Идентификатор кодека : A_AC3
Продолжительность : 1 ч. 58 м.
Вид битрейта : Постоянный
Битрейт : 448 Кбит/сек
Каналы : 6 каналов
Расположение каналов : Front: L C R, Side: L R, LFE
Частота : 48,0 КГц
Частота кадров : 31,250 кадров/сек (1536 SPF)
Битовая глубина : 16 бит
Метод сжатия : С потерями
Размер потока : 380 Мбайт (4%)
Заголовок : AVO | Д. Есарев
Язык : Russian
По умолчанию : Нет
Принудительно : Нет

Аудио #6
Идентификатор : 7
Формат : AC-3
Формат/Информация : Audio Coding 3
Идентификатор кодека : A_AC3
Продолжительность : 1 ч. 58 м.
Вид битрейта : Постоянный
Битрейт : 448 Кбит/сек
Каналы : 6 каналов
Расположение каналов : Front: L C R, Side: L R, LFE
Частота : 48,0 КГц
Частота кадров : 31,250 кадров/сек (1536 SPF)
Битовая глубина : 16 бит
Метод сжатия : С потерями
Размер потока : 380 Мбайт (4%)
Заголовок : AVO | Ю. Живов
Язык : Russian
По умолчанию : Нет
Принудительно : Нет

Аудио #7
Идентификатор : 8
Формат : AC-3
Формат/Информация : Audio Coding 3
Идентификатор кодека : A_AC3
Продолжительность : 1 ч. 58 м.
Вид битрейта : Постоянный
Битрейт : 448 Кбит/сек
Каналы : 6 каналов
Расположение каналов : Front: L C R, Side: L R, LFE
Частота : 48,0 КГц
Частота кадров : 31,250 кадров/сек (1536 SPF)
Битовая глубина : 16 бит
Метод сжатия : С потерями
Размер потока : 380 Мбайт (4%)
Заголовок : AVO | А. Гаврилов
Язык : Russian
По умолчанию : Нет
Принудительно : Нет

Аудио #8
Идентификатор : 9
Формат : AC-3
Формат/Информация : Audio Coding 3
Идентификатор кодека : A_AC3
Продолжительность : 1 ч. 58 м.
Вид битрейта : Постоянный
Битрейт : 448 Кбит/сек
Каналы : 6 каналов
Расположение каналов : Front: L C R, Side: L R, LFE
Частота : 48,0 КГц
Частота кадров : 31,250 кадров/сек (1536 SPF)
Битовая глубина : 16 бит
Метод сжатия : С потерями
Размер потока : 380 Мбайт (4%)
Заголовок : AVO | С. Визгунов
Язык : Russian
По умолчанию : Нет
Принудительно : Нет

Аудио #9
Идентификатор : 10
Формат : E-AC-3
Формат/Информация : Enhanced Audio Coding 3
Идентификатор кодека : A_EAC3
Продолжительность : 1 ч. 58 м.
Вид битрейта : Постоянный
Битрейт : 640 Кбит/сек
Каналы : 6 каналов
Расположение каналов : Front: L C R, Side: L R, LFE
Частота : 48,0 КГц
Частота кадров : 187,500 кадров/сек (256 SPF)
Метод сжатия : С потерями
Размер потока : 543 Мбайт (6%)
Заголовок : Original
Язык : English
По умолчанию : Нет
Принудительно : Нет

Текст #1
Идентификатор : 11
Формат : UTF-8
Идентификатор кодека : S_TEXT/UTF8
Идентификатор кодека/Информация : UTF-8 Plain Text
Язык : Russian
По умолчанию : Нет
Принудительно : Нет

Текст #2
Идентификатор : 12
Формат : UTF-8
Идентификатор кодека : S_TEXT/UTF8
Идентификатор кодека/Информация : UTF-8 Plain Text
Язык : English
По умолчанию : Нет
Принудительно : Нет

Текст #3
Идентификатор : 13
Формат : UTF-8
Идентификатор кодека : S_TEXT/UTF8
Идентификатор кодека/Информация : UTF-8 Plain Text
Заголовок : SDH
Язык : English
По умолчанию : Нет
Принудительно : Нет

Текст #4
Идентификатор : 14
Формат : UTF-8
Идентификатор кодека : S_TEXT/UTF8
Идентификатор кодека/Информация : UTF-8 Plain Text
Язык : Finnish
По умолчанию : Нет
Принудительно : Нет

Меню
00:00:00.000 : :Main Titles
00:06:59.572 : :October 10, 1969
00:11:06.902 : :October 10, 1999
00:16:29.390 : :On the Air
00:21:57.177 : :The Ball Game
00:23:33.188 : :History Lesson
00:25:21.171 : :30 Years Ago
00:32:58.754 : :The Buxton Fire
00:43:48.362 : :Catching Up
00:54:03.685 : :Repercussions
01:00:44.251 : :"Something Happened"
01:04:35.858 : :Hunting the Nightingale
01:10:51.149 : :Suspect and Victim
01:18:23.643 : :Evidence
01:21:19.611 : :Skeletons in the Closet
01:25:54.510 : :Under Suspicion
01:29:01.822 : :Detained
01:39:12.015 : :Last Flight of the Nightingale
01:43:42.410 : :Safe at Home
01:46:04.970 : :Return of the Nightingale
01:51:22.120 : :The Sullivans/End Titles



_________________
Проголосуй за трекер Открытый торрент трекер - RUS-MEDIA.ORG

Проголосуй Открытый торрент трекер - RUS-MEDIA.ORG


Вернуться к началу
 Профиль Отправить личное сообщение  
 
   Похожие торренты   Автор   Торрент   Размер 
В этой теме нет новых непрочитанных сообщений. Радиоволна / Frequency [триллер, фантастика, драма, 2000] WEB-DLRip-AVC, Dub [Open Matte]

salma3

2 | 6

2.18 ГБ

В этой теме нет новых непрочитанных сообщений. Радиоволна / Радиочастота / Frequency [Фантастика, триллер, драма, 2000] BDRip 720p, Dub

salma3

22 | 20

8.2 ГБ

В этой теме нет новых непрочитанных сообщений. Радиоволна / Frequency [триллер, фантастика, драма, 2000] WEB-DL 1080p, Dub [Open Matte]

salma3

0 | 0

19.43 ГБ

В этой теме нет новых непрочитанных сообщений. Радиоволна / Frequency [01x01-04 из 10] ( Фантастика, фэнтези, триллер, драма, детектив, 2016) WEB-DLRip 720p | IdeaFilm

marya111

2 | 4

5.25 ГБ

В этой теме нет новых непрочитанных сообщений. Радиоволна / Frequency [триллер, фантастика, драма, 2000] BDRip-HEVC 1080p, Dub

salma3

0 | 0

9.45 ГБ

В этой теме нет новых непрочитанных сообщений. Радиоволна / Frequency [S01] [Фантастика, фэнтези, триллер, 2016] WEB-DLRip 720p, Mvo [IdeaFilm]

salma3

18 | 34

17.49 ГБ

В этой теме нет новых непрочитанных сообщений. Радиоволна / Frequency [S01] [Фантастика, фэнтези, триллер, 2016] WEB-DLRip, Mvo [IdeaFilm]

salma3

46 | 42

7.23 ГБ


Начать новую тему Ответить на тему  [ 1 сообщение ] 




Для Мосгорсуда, Роскомнадзора и рекламодателей:: mosgorsud-torrent[собачка]yandex.ru
cron