COVID-19 - Последняя информация о коронавирусе на сайте Минздрава




Торрент файл
скачать торрент магнет ссылка Добавлен: 13 мар 2018, 22:14
Размер: 7.02 ГБ
Сидеров: 0
Личеров: 0
Статус: (salma3)
Автор

СообщениеДобавлено: 13 мар 2018, 22:14 

Не в сети
Супермодератор
Аватара пользователя
Дата регистрации:
15 фев 2012, 16:44
Возраст: 31
Спасибо: 8277 / 2148
Сообщения: 96623
Год выпуска: 2003
Жанр: комедия
Режиссер: Дэнни ДеВито

В ролях: Бен Стиллер, Дрю Бэрримор, Айлин Эссел, Харви Фирштейн, Джастин Теру, Джеймс Римар, Роберт Уиздом, Свузи Кёрц, Уоллес Шоун, Майя Рудольф

Описание: Алекс и Нэнси наконец-то нашли квартиру своей мечты - двухэтажные апартаменты в тихом районе. Но покупка оказалось с нагрузкой: дряхлой старушкой, которая не собирается съезжать! Супруги решают немного подождать, пока вынужденная соседка съедет на тот свет по естественным причинам. Но бодрость старушки не оставляет молодоженам ни шанса... Жизнь Алекса и Нэнси постепенно превращается в кошмар! Доведенные неожиданной активностью соседки до безумия, Алекс и Нэнси начинают разрабатывать зловещие планы физического устранения проблемы...



Страна: США, Германия
Продолжительность: 01:29:09
Перевод: Профессиональный (полное дублирование)[R5]
Cубтитры: Русские, английские (внешние .srt)

Формат: BDRip 1080p
Видео: 1920x1080p (16:9), 23.976 fps, AVC MPEG-4 (H.264), ~10.4 Mbps, 0.210 bit/pixel
Аудио #1: Русский: 48 kHz, AC3 Dolby Digital, 6 ch, ~384 kbps
Аудио #2: Английский: 48 kHz, AC3 Dolby Digital, 6 ch, ~448 kbps

Format : Matroska
Format version : Version 2
File size : 7.02 GiB
Duration : 1h 29mn
Overall bit rate : 11.3 Mbps
Encoded date : UTC 2012-10-09 04:36:56
Writing application : mkvmerge v5.8.0 ('No Sleep / Pillow') built on Sep 2 2012 15:37:04
Writing library : libebml v1.2.3 + libmatroska v1.3.0

Video
ID : 1
Format : AVC
Format/Info : Advanced Video Codec
Format profile :
Format settings, CABAC : Yes
Format settings, ReFrames : 4 frames
Codec ID : V_MPEG4/ISO/AVC
Duration : 1h 29mn
Bit rate : 10.4 Mbps
Width : 1 920 pixels
Height : 1 080 pixels
Display aspect ratio : 16:9
Frame rate : 23.976 fps
Color space : YUV
Chroma subsampling : 4:2:0
Bit depth : 8 bits
Scan type : Progressive
Bits/(Pixel*Frame) : 0.210
Stream size : 6.36 GiB (91%)
Writing library : x264 core 128 r2216 198a7ea
Encoding settings : cabac=1 / ref=4 / deblock=1:-3:-3 / analyse=0x3:0x113 / me=umh / subme=10 / psy=1 / psy_rd=1.00:0.05 / mixed_ref=1 / me_range=32 / chroma_me=1 / trellis=2 / 8x8dct=1 / cqm=0 / deadzone=21,11 / fast_pskip=0 / chroma_qp_offset=-3 / threads=6 / lookahead_threads=1 / sliced_threads=0 / nr=0 / decimate=1 / interlaced=0 / bluray_compat=0 / constrained_intra=0 / bframes=9 / b_pyramid=2 / b_adapt=2 / b_bias=0 / direct=3 / weightb=1 / open_gop=0 / weightp=2 / keyint=240 / keyint_min=23 / scenecut=40 / intra_refresh=0 / rc=2pass / mbtree=0 / bitrate=10437 / ratetol=1.0 / qcomp=0.75 / qpmin=0 / qpmax=69 / qpstep=4 / cplxblur=20.0 / qblur=0.5 / ip_ratio=1.35 / pb_ratio=1.25 / aq=2:0.80 / zones=277,3284,q=26/119522,128267,q=35
Language : English
Default : Yes
Forced : No

Audio #1
ID : 2
Format : AC-3
Format/Info : Audio Coding 3
Mode extension : CM (complete main)
Codec ID : A_AC3
Duration : 1h 29mn
Bit rate mode : Constant
Bit rate : 384 Kbps
Channel(s) : 6 channels
Channel positions : Front: L C R, Side: L R, LFE
Sampling rate : 48.0 KHz
Bit depth : 16 bits
Compression mode : Lossy
Stream size : 245 MiB (3%)
Title : Дубляж
Language : Russian
Default : Yes
Forced : No

Audio #2
ID : 3
Format : AC-3
Format/Info : Audio Coding 3
Mode extension : CM (complete main)
Codec ID : A_AC3
Duration : 1h 29mn
Bit rate mode : Constant
Bit rate : 448 Kbps
Channel(s) : 6 channels
Channel positions : Front: L C R, Side: L R, LFE
Sampling rate : 48.0 KHz
Bit depth : 16 bits
Compression mode : Lossy
Stream size : 286 MiB (4%)
Language : English
Default : No
Forced : No

Text #1
ID : 4
Format : UTF-8
Codec ID : S_TEXT/UTF8
Codec ID/Info : UTF-8 Plain Text
Language : Russian
Default : No
Forced : No

Text #2
ID : 5
Format : UTF-8
Codec ID : S_TEXT/UTF8
Codec ID/Info : UTF-8 Plain Text
Language : English
Default : No
Forced : No

Menu
00:00:00.000 : en:Chapter 01
00:07:05.424 : en:Chapter 02
00:16:33.951 : en:Chapter 03
00:24:27.465 : en:Chapter 04
00:33:30.008 : en:Chapter 05
00:37:37.255 : en:Chapter 06
00:41:40.498 : en:Chapter 07
00:46:43.800 : en:Chapter 08
00:52:27.143 : en:Chapter 09
00:56:43.065 : en:Chapter 10
01:03:58.876 : en:Chapter 11
01:06:24.981 : en:Chapter 12
01:10:45.240 : en:Chapter 13
01:14:50.068 : en:Chapter 14
01:19:08.285 : en:Chapter 15





_________________
Проголосуй за трекер Открытый торрент трекер - RUS-MEDIA.ORG

Проголосуй Открытый торрент трекер - RUS-MEDIA.ORG


Скачать книги и аудио книги через торрент


Вернуться к началу
 Профиль Отправить личное сообщение  
 
   Похожие торренты   Автор   Торрент   Размер 
В этой теме нет новых непрочитанных сообщений. К чёрту любовь! / Down with Love [Комедия, мелодрама, 2003] BDRip 1080p, Dub

salma3

0 | 0

8.69 ГБ

В этой теме нет новых непрочитанных сообщений. Клад / Holes [Комедия, драма, приключения, 2003] BDRip 1080p, Dub

salma3

0 | 0

11.89 ГБ

В этой теме нет новых непрочитанных сообщений. Трудности перевода / Lost in Translation [Драма, мелодрама, комедия, 2003] BDRip 1080p, Dub

salma3

0 | 0

10.86 ГБ

В этой теме нет новых непрочитанных сообщений. Брюс всемогущий / Bruce Almighty [фэнтези, драма, комедия, 2003] BDRip 1080p, Dub

salma3

0 | 0

13.92 ГБ

В этой теме нет новых непрочитанных сообщений. Плохие парни 2 / Bad Boys II [Боевик, триллер, комедия, 2003] BDRip 1080p, Dub [4K Remastered]

salma3

0 | 0

24.94 ГБ

В этой теме нет новых непрочитанных сообщений. Агент Джонни Инглиш / Johnny English [Боевик, Комедия, Приключения, 2003] BDRip-HEVC 1080p, Dub

salma3

0 | 0

7.11 ГБ

В этой теме нет новых непрочитанных сообщений. Ангелы Чарли 2: Только вперед / Charlie's Angels: Full Throttle [боевик, комедия, криминал, 2003] BDRip-HEVC 1080p, Dub

salma3

0 | 0

8.96 ГБ


Начать новую тему Ответить на тему  [ 1 сообщение ] 




Для Мосгорсуда, Роскомнадзора и рекламодателей:: rstracker[собака]yandex.ru
cron