Торрент файл
скачать торрент магнет ссылка Добавлен: 10 мар 2018, 13:08
Размер: 44.39 ГБ
Сидеров: 0
Личеров: 12
Статус: (salma3)
Автор

СообщениеДобавлено: 10 мар 2018, 13:08 

Не в сети
Супермодератор
Аватара пользователя
Дата регистрации:
15 фев 2012, 16:44
Возраст: 28
Спасибо: 7061 / 2147
Сообщения: 59181
Год выпуска: 2009
Жанр: Ужасы, триллер, комедия
Выпущено: США, Dune Entertainment, Fox Atomic, Hard C
Продолжительность: 01:47:29, 01:42:21
Перевод: Дублированный
Субтитры: Русские, английские, французские, датские, финские, немецкие, итальянские, нидерландские, норвежские, испанские, шведские
Режиссер: Карин Кусама

В ролях: Меган Фокс, Аманда Сайфред, Джонни Симмонс, Адам Броди, Дж.К. Симмонс, Кайл Галлнер, Крис Прэтт, Хуан Ридингер

О фильме: В маленьком захолустном городке с милым названием «Чертов котел» живут две подруги – первая красавица школы Дженифер и совсем неприметная Ниди. Однажды вечером подруги отправляются в местный ресторан на концерт приезжей рок-группы, но через некоторое время в ресторане происходит пожар и Дженифер уезжает с рокерами на их фургоне. А на следующее утро в городе происходит первое зверское убийство. После ночного приключения Дженифер резко меняется и начинает методично убивать парней. Но происшедшие изменения с Дженифер не замечает никто, кроме ее подруги Ниди. Она понимает, что в Дженифер вселился злой дух и теперь на хрупкие плечи Ниди ложится проблема, как изгнать его из подруги.



Качество: Blu-Ray 1080p
Видео: MPEG-4 AVC, 29686 Кбит/с, 1920x1080, 23.976 кадр/с
Аудио: Русский, французский, немецкий, итальянский, испанский (DTS, 6 ch, 768 Кбит/с), английский (DTS, 6 ch, 768 Кбит/с), (DTS-HD MA, 6 ch, 3803 Кбит/с)



DISC INFO:
Disc Size: 47 663 479 405 bytes
Protection: AACS
BD-Java: Yes
BDInfo: 0.5.3
PLAYLIST REPORT:
Name: 00830.MPLS
Length: 1:47:29 (h:m:s)
Size: 33 010 950 144 bytes
Total Bitrate: 40,95 Mbps
VIDEO:
Codec Bitrate Deion
----- ------- -----------
MPEG-4 AVC Video 29686 kbps 1080p / 23,976 fps / 16:9 / High Profile 4.1
AUDIO:
Codec Language Bitrate Deion
----- -------- ------- -----------
DTS-HD Master Audio English 3803 kbps 5.1 / 48 kHz / 3803 kbps / 24-bit (DTS Core: 5.1 / 48 kHz / 1509 kbps / 24-bit)
DTS Audio English 768 kbps 5.1 / 48 kHz / 768 kbps / 24-bit
DTS Audio French 768 kbps 5.1 / 48 kHz / 768 kbps / 24-bit
DTS Audio German 768 kbps 5.1 / 48 kHz / 768 kbps / 24-bit
DTS Audio Italian 768 kbps 5.1 / 48 kHz / 768 kbps / 24-bit
DTS Audio Russian 768 kbps 5.1 / 48 kHz / 768 kbps / 24-bit
DTS Audio Spanish 768 kbps 5.1 / 48 kHz / 768 kbps / 24-bit
SUBTITLES:
Codec Language Bitrate Deion
----- -------- ------- -----------
Presentation Graphics English 50,402 kbps
Presentation Graphics Danish 38,452 kbps
Presentation Graphics Dutch 28,378 kbps
Presentation Graphics Finnish 25,590 kbps
Presentation Graphics French 35,287 kbps
Presentation Graphics German 41,157 kbps
Presentation Graphics Italian 38,556 kbps
Presentation Graphics Norwegian 31,285 kbps
Presentation Graphics Russian 43,424 kbps
Presentation Graphics Spanish 38,946 kbps
Presentation Graphics Swedish 35,104 kbps
FILES:
Name Time In Length Size Total Bitrate
---- ------- ------ ---- -------------
00412.M2TS 0:00:00.000 0:06:51.327 2 125 363 200 41 337
00391.M2TS 0:06:51.327 0:02:17.095 695 783 424 40 601
00413.M2TS 0:09:08.422 0:00:39.289 195 317 760 39 770
00393.M2TS 0:09:47.712 0:03:30.543 1 085 755 392 41 255
00414.M2TS 0:13:18.255 0:07:16.310 2 259 480 576 41 429
00395.M2TS 0:20:34.566 0:14:05.553 4 331 292 672 40 980
00415.M2TS 0:34:40.119 0:03:43.056 1 144 780 800 41 058
00397.M2TS 0:38:23.175 0:01:38.139 497 215 488 40 531
00416.M2TS 0:40:01.315 0:00:44.586 220 858 368 39 628
00399.M2TS 0:40:45.901 0:05:01.009 1 545 738 240 41 082
00417.M2TS 0:45:46.910 0:01:07.358 332 826 624 39 529
00401.M2TS 0:46:54.269 0:11:35.945 3 547 963 392 40 784
00418.M2TS 0:58:30.214 0:03:01.598 906 227 712 39 922
00403.M2TS 1:01:31.813 0:03:24.579 1 046 243 328 40 913
00419.M2TS 1:04:56.392 0:02:02.664 624 672 768 40 740
00405.M2TS 1:06:59.056 0:03:44.515 1 137 561 600 40 534
00420.M2TS 1:10:43.572 0:03:38.176 1 110 405 120 40 716
00407.M2TS 1:14:21.748 0:05:01.050 1 543 323 648 41 012
00421.M2TS 1:19:22.799 0:09:36.367 2 987 931 648 41 473
00409.M2TS 1:28:59.166 0:03:19.407 1 019 811 840 40 914
00422.M2TS 1:32:18.574 0:05:19.485 1 621 819 392 40 611
00411.M2TS 1:37:38.060 0:09:51.465 3 030 577 152 40 991
PLAYLIST REPORT:
Name: 00800.MPLS
Length: 1:42:21 (h:m:s)
Size: 31 449 212 928 bytes
Total Bitrate: 40,96 Mbps
VIDEO:
Codec Bitrate Deion
----- ------- -----------
MPEG-4 AVC Video 29706 kbps 1080p / 23,976 fps / 16:9 / High Profile 4.1
AUDIO:
Codec Language Bitrate Deion
----- -------- ------- -----------
DTS-HD Master Audio English 3809 kbps 5.1 / 48 kHz / 3809 kbps / 24-bit (DTS Core: 5.1 / 48 kHz / 1509 kbps / 24-bit)
DTS Audio English 768 kbps 5.1 / 48 kHz / 768 kbps / 24-bit
DTS Audio French 768 kbps 5.1 / 48 kHz / 768 kbps / 24-bit
DTS Audio German 768 kbps 5.1 / 48 kHz / 768 kbps / 24-bit
DTS Audio Italian 768 kbps 5.1 / 48 kHz / 768 kbps / 24-bit
DTS Audio Russian 768 kbps 5.1 / 48 kHz / 768 kbps / 24-bit
DTS Audio Spanish 768 kbps 5.1 / 48 kHz / 768 kbps / 24-bit
SUBTITLES:
Codec Language Bitrate Deion
----- -------- ------- -----------
Presentation Graphics English 50,365 kbps
Presentation Graphics Danish 38,045 kbps
Presentation Graphics Dutch 27,853 kbps
Presentation Graphics Finnish 25,070 kbps
Presentation Graphics French 30,591 kbps
Presentation Graphics German 40,550 kbps
Presentation Graphics Italian 37,971 kbps
Presentation Graphics Norwegian 30,791 kbps
Presentation Graphics Russian 43,253 kbps
Presentation Graphics Spanish 38,607 kbps
Presentation Graphics Swedish 34,597 kbps


_________________
Проголосуй за трекер Открытый торрент трекер - RUS-MEDIA.ORG

Проголосуй Открытый торрент трекер - RUS-MEDIA.ORG


Вернуться к началу
 Профиль Отправить личное сообщение  
 
   Похожие торренты   Автор   Торрент   Размер 
В этой теме нет новых непрочитанных сообщений. Тело Дженнифер / Jennifer's Body [Ужасы, комедия, 2009] BDRip 1080p, Dub [Лицензия] [UNRATED]

salma3

0 | 0

12.2 ГБ

В этой теме нет новых непрочитанных сообщений. Тело Дженнифер / Jennifer's Body [ужасы, комедия, 2009] BDRip-HEVC 1080p, Dub [Unrated Cut]

salma3

10 | 12

6.25 ГБ

В этой теме нет новых непрочитанных сообщений. Расплавленное тело / Body Melt [фантастика, ужасы, комедия, 1993] BDRip 1080p, Avo

salma3

46 | 19

7.4 ГБ

В этой теме нет новых непрочитанных сообщений. Дженнифер 8 / Jennifer Eight [Триллер, детектив, драма, криминал, 1992] BDRemux 1080p, Mvo+Dvo+Avo+Sub

salma3

2 | 9

34.99 ГБ

В этой теме нет новых непрочитанных сообщений. Дженнифер 8 / Jennifer Eight [Триллер, драма, криминал, детектив, 1992] BDRip 1080p, Mvo

salma3

41 | 33

21.39 ГБ

В этой теме нет новых непрочитанных сообщений. Расчлененное тело / Body Parts [ужасы, триллер, 1991] HDTV 1080i, Mvo

salma3

25 | 11

2.78 ГБ

В этой теме нет новых непрочитанных сообщений. Расплавленное тело / Body Melt [фантастика, ужасы, комедия, 1993] HDRip-AVC, Avo

salma3

33 | 2

744.2 МБ


Начать новую тему Ответить на тему  [ 1 сообщение ] 




Для Мосгорсуда, Роскомнадзора и рекламодателей:: mosgorsud-torrent[собачка]yandex.ru
cron