Торрент файл
скачать торрент магнет ссылка Добавлен: 09 мар 2018, 22:17
Размер: 3.38 ГБ
Сидеров: 0
Личеров: 0
Статус: (salma3)
Автор

СообщениеДобавлено: 09 мар 2018, 22:17 

Не в сети
Супермодератор
Аватара пользователя
Дата регистрации:
15 фев 2012, 16:44
Возраст: 29
Спасибо: 7377 / 2147
Сообщения: 75818
Год выхода: 2017
Жанр: боевик, приключения
Режиссер: Кадзуёси Кумакири

В ролях: Го Аяно, Нидзиро Мураками, Ацуко Маэда, Дзюн Фубуки, Каору Кобаяси, Акира Эмото и другие

О фильме:
Отец Кэнго Ятабэ был знаменитым мастером кэндо, но теперь он — практически овощ. Кэнго и сам был прежде перспективным фехтовальщиком, но после несчастного случая, постигшего его семью, он бросил бокэн, закрыл додзё, работает теперь охранником в метро и сильно пьёт. Случайное знакомство со старшеклассником и начинающим рэппером Ханэдой, демонстрирующим редкой силы талант во владении деревянным мечом, вынуждает Кэнго и самому вернуться к тренировкам.



Страна: Япония
Продолжительность: 02:06:31
Перевод: Любительский (двухголосый закадровый) | HiWay Grope

Файл
Кодек: MPEG-4 AVC/H.264
Качество: WEBRip 720p
Видео: 1280x536, 23.976 fps, ~3362 kbps, 0.204 bit/pixel
Аудио rus: AC3, 48 kHz, 6 ch, 384 Kbps

Реклама: присутствует

Семпл

General
Unique ID : 212162959565495843621316443260707128442 (0x9F9D19856532181F9EAA83D94F77C47A)
Complete name : E:Mukoku.2017.720p.WEBRip.HiWayGropeMukoku.2017.720p.WEBRip.HiWayGrope.mkv
Format : Matroska
Format version : Version 4 / Version 2
File size : 3.38 GiB
Duration : 2h 6mn
Overall bit rate : 3 823 Kbps
Encoded date : UTC 2018-03-09 13:23:38
Writing application : mkvmerge v18.0.0 ('Apricity') 64-bit
Writing library : libebml v1.3.5 + libmatroska v1.4.8

Video
ID : 1
Format : AVC
Format/Info : Advanced Video Codec
Format profile : Main@L4.1
Format settings, CABAC : Yes
Format settings, ReFrames : 4 frames
Codec ID : V_MPEG4/ISO/AVC
Duration : 2h 6mn
Bit rate : 3 362 Kbps
Width : 1 280 pixels
Height : 536 pixels
Display aspect ratio : 2.40:1
Frame rate mode : Constant
Frame rate : 23.976 (24000/1001) fps
Standard : NTSC
Color space : YUV
Chroma subsampling : 4:2:0
Bit depth : 8 bits
Scan type : Progressive
Bits/(Pixel*Frame) : 0.204
Stream size : 2.97 GiB (88%)
Language : English
Default : Yes
Forced : No
Color range : Limited
Color primaries : BT.601 NTSC
Transfer characteristics : BT.601
Matrix coefficients : BT.601

Audio
ID : 2
Format : AC-3
Format/Info : Audio Coding 3
Mode extension : CM (complete main)
Format settings, Endianness : Big
Codec ID : A_AC3
Duration : 2h 6mn
Bit rate mode : Constant
Bit rate : 384 Kbps
Channel(s) : 6 channels
Channel positions : Front: L C R, Side: L R, LFE
Sampling rate : 48.0 KHz
Frame rate : 31.250 fps (1536 spf)
Compression mode : Lossy
Stream size : 348 MiB (10%)
Title : rus
Language : Russian
Default : Yes
Forced : No



Релиз от: HiWay Grope


_________________
Проголосуй за трекер Открытый торрент трекер - RUS-MEDIA.ORG

Проголосуй Открытый торрент трекер - RUS-MEDIA.ORG


Вернуться к началу
 Профиль Отправить личное сообщение  
 
   Похожие торренты   Автор   Торрент   Размер 
В этой теме нет новых непрочитанных сообщений. Боевая песня / Mukoku [боевик, приключения, 2017] WEBRip, Dvo

salma3

32 | 8

1.49 ГБ

В этой теме нет новых непрочитанных сообщений. Короли / Baadshaho [Боевик, триллер, приключения, 2017] WEBRip 720p, Dvo

salma3

100 | 8

1.38 ГБ

В этой теме нет новых непрочитанных сообщений. Защитники / The Defenders [S01] [фантастика, боевик, криминал, приключения, 2017] WEBRip 720p, Dvo [SunshineStudio]

salma3

1092 | 403

9.38 ГБ

В этой теме нет новых непрочитанных сообщений. Мумия / The Mummy [Ужасы, фэнтези, боевик, приключения, 2017] WEBRip-AVC-720p, Dub [Трейлер]

salma3

1650 | 122

78.88 МБ

В этой теме нет новых непрочитанных сообщений. Сборник - Лирика Весны: Авторская Песня [Шансон, Авторская Песня, 2017] MP3 / 256kbps

salma3

10 | 1

1.03 ГБ

В этой теме нет новых непрочитанных сообщений. Друзья / Baadshaho [Боевик, триллер, приключения, 2017] WEBRip, Dvo

salma3

14 | 1

1.37 ГБ

В этой теме нет новых непрочитанных сообщений. Схватка [01-16 из 16] [Боевик, 2017] WEBRip 720p

salma3

150 | 61

8.31 ГБ


Начать новую тему Ответить на тему  [ 1 сообщение ] 




Для Мосгорсуда, Роскомнадзора и рекламодателей:: mosgorsud-torrent[собачка]yandex.ru
cron