Торрент файл
скачать торрент магнет ссылка Добавлен: 08 мар 2018, 12:44
Размер: 8.71 ГБ
Сидеров: 111
Личеров: 26
Статус: (salma3)
Автор

СообщениеДобавлено: 08 мар 2018, 12:44 

Не в сети
Супермодератор
Аватара пользователя
Дата регистрации:
15 фев 2012, 16:44
Возраст: 28
Спасибо: 7223 / 2147
Сообщения: 67788
Год выпуска: 2017
Жанр: Драма, семейный
Режиссер: Стивен Чбоски

В ролях: Джейкоб Тремблей, Оуэн Уилсон, Изабела Видович, Джулия Робертс, Марк Доцлав, Рукия Бернард, Дженнифер Марч, Мэнди Пэтинкин, Ноа Джуп, Брайс Гейзар

О фильме:
С одной стороны мальчик Август Пулман такой же как и другие мальчишки его возраста — любит ходить на дни рождения к друзьям, играть в компьютерные игры, фанатеет от «Звездных войн», играет со своей собакой, ссорится и мирится со старшей сестрой. А с другой — он совсем не такой как другие мальчишки его возраста. Во-первых, Август никогда не ходил в обычную школу — с первого класса с ним дома занималась мама. Во-вторых, Август перенес 27 операций. Из-за очень редкой, но иногда встречающейся генетической ошибки у Августа нет лица. И вот такой мальчик должен пойти в школу. В первый раз. К обычным детям.



Страна: США
Продолжительность: 01:53:10
Перевод: Дублированный | iTunes

Качество: BDRip 1080p
Видео: MPEG-4 AVC, 1920x800, 10.0 Mbit/s, 23.976 fps
Аудио #01: 48 kHz, AC3, 5.1, 384 Kbps | Дублированный | iTunes | RUS |
Аудио #02: 48 kHz, AC3, 5.1, 640 Kbps | Оригинал | ENG |
Субтитры: Русские, английские

General
Unique ID : 29338278966113816916393658992609992329 (0x161258D4D869A27135401F6A31F81E89)
Complete name : C:Video111Wonder.2017.BDRip.1080p.ExKinoRay.mkv
Format : Matroska
Format version : Version 4 / Version 2
File size : 8.71 GiB
Duration : 1 h 53 min
Overall bit rate : 11.0 Mb/s
Movie name : Wonder 2017 from ExKinoRay
Encoded date : UTC 2018-03-07 19:27:20
Writing application : mkvmerge v21.0.0 ('Tardigrades Will Inherit The Earth') 64-bit
Writing library : libebml v1.3.5 + libmatroska v1.4.8

Video
ID : 1
Format : AVC
Format/Info : Advanced Video Codec
Format profile : High@L4.1
Format settings : CABAC / 5 Ref Frames
Format settings, CABAC : Yes
Format settings, ReFrames : 5 frames
Codec ID : V_MPEG4/ISO/AVC
Duration : 1 h 53 min
Bit rate : 10 000 kb/s
Width : 1 920 pixels
Height : 800 pixels
Display aspect ratio : 2.40:1
Frame rate mode : Constant
Frame rate : 23.976 (24000/1001) FPS
Color space : YUV
Chroma subsampling : 4:2:0
Bit depth : 8 bits
Scan type : Progressive
Bits/(Pixel*Frame) : 0.272
Stream size : 7.90 GiB (91%)
Writing library : x264 core 148 r2705 3f5ed56
Encoding settings : cabac=1 / ref=5 / deblock=1:-2:-2 / analyse=0x3:0x133 / me=umh / subme=11 / psy=1 / psy_rd=1.05:0.05 / mixed_ref=1 / me_range=48 / chroma_me=1 / trellis=2 / 8x8dct=1 / cqm=0 / deadzone=21,11 / fast_pskip=0 / chroma_qp_offset=-3 / threads=16 / lookahead_threads=4 / sliced_threads=0 / nr=0 / decimate=0 / interlaced=0 / bluray_compat=0 / constrained_intra=0 / bframes=8 / b_pyramid=2 / b_adapt=2 / b_bias=0 / direct=3 / weightb=1 / open_gop=0 / weightp=2 / keyint=240 / keyint_min=23 / scenecut=40 / intra_refresh=0 / rc_lookahead=50 / rc=2pass / mbtree=0 / bitrate=10000 / ratetol=1.0 / qcomp=0.60 / qpmin=0 / qpmax=69 / qpstep=4 / cplxblur=20.0 / qblur=0.5 / vbv_maxrate=50000 / vbv_bufsize=62500 / nal_hrd=none / filler=0 / ip_ratio=1.40 / pb_ratio=1.30 / aq=3:0.80
Language : English
Default : Yes
Forced : No

Audio #1
ID : 2
Format : AC-3
Format/Info : Audio Coding 3
Codec ID : A_AC3
Duration : 1 h 53 min
Bit rate mode : Constant
Bit rate : 384 kb/s
Channel(s) : 6 channels
Channel positions : Front: L C R, Side: L R, LFE
Sampling rate : 48.0 kHz
Frame rate : 31.250 FPS (1536 SPF)
Bit depth : 16 bits
Compression mode : Lossy
Stream size : 311 MiB (3%)
Title : iTunes
Language : Russian
Service kind : Complete Main
Default : Yes
Forced : Yes

Audio #2
ID : 3
Format : AC-3
Format/Info : Audio Coding 3
Codec ID : A_AC3
Duration : 1 h 53 min
Bit rate mode : Constant
Bit rate : 640 kb/s
Channel(s) : 6 channels
Channel positions : Front: L C R, Side: L R, LFE
Sampling rate : 48.0 kHz
Frame rate : 31.250 FPS (1536 SPF)
Bit depth : 16 bits
Compression mode : Lossy
Stream size : 518 MiB (6%)
Title : Original
Language : English
Service kind : Complete Main
Default : No
Forced : No

Text #1
ID : 4
Format : UTF-8
Codec ID : S_TEXT/UTF8
Codec ID/Info : UTF-8 Plain Text
Duration : 1 h 44 min
Bit rate : 111 b/s
Count of elements : 1504
Stream size : 85.2 KiB (0%)
Title : full
Language : Russian
Default : No
Forced : No

Text #2
ID : 5
Format : UTF-8
Codec ID : S_TEXT/UTF8
Codec ID/Info : UTF-8 Plain Text
Duration : 1 h 44 min
Bit rate : 62 b/s
Count of elements : 1468
Stream size : 48.2 KiB (0%)
Title : full
Language : English
Default : No
Forced : No

Text #3
ID : 6
Format : UTF-8
Codec ID : S_TEXT/UTF8
Codec ID/Info : UTF-8 Plain Text
Duration : 1 h 44 min
Bit rate : 68 b/s
Count of elements : 1633
Stream size : 52.3 KiB (0%)
Title : SDH
Language : English
Default : No
Forced : No

Menu
00:00:00.000 : en:00:00:00.000
00:06:04.489 : en:00:06:04.489
00:12:18.446 : en:00:12:18.446
00:19:23.496 : en:00:19:23.496
00:26:23.165 : en:00:26:23.165
00:33:06.234 : en:00:33:06.234
00:38:54.666 : en:00:38:54.666
00:47:19.378 : en:00:47:19.378
00:51:42.891 : en:00:51:42.891
00:59:36.865 : en:00:59:36.865
01:06:05.336 : en:01:06:05.336
01:14:59.411 : en:01:14:59.411
01:23:18.034 : en:01:23:18.034
01:30:36.097 : en:01:30:36.097
01:33:19.510 : en:01:33:19.510
01:40:43.996 : en:01:40:43.996


Релиз от: Автор релиза:


_________________
Проголосуй за трекер Открытый торрент трекер - RUS-MEDIA.ORG

Проголосуй Открытый торрент трекер - RUS-MEDIA.ORG


Вернуться к началу
 Профиль Отправить личное сообщение  
 
   Похожие торренты   Автор   Торрент   Размер 
В этой теме нет новых непрочитанных сообщений. Чудо / Wonder [Драма, семейный, 2017] BDRip, Dub [iTunes]

salma3

0 | 1

746.91 МБ

В этой теме нет новых непрочитанных сообщений. Чудо / Wonder [Драма, семейный, 2017] BDRip, Dub [iTunes]

salma3

398 | 72

1.41 ГБ

В этой теме нет новых непрочитанных сообщений. Чудо / Wonder [Драма, семейный, 2017] BDRemux 1080p, Dub [iTunes]

salma3

11 | 7

26.53 ГБ

В этой теме нет новых непрочитанных сообщений. Чудо / Wonder [Драма, семейный, 2017] BDRemux 2160p, Dub [iTunes] [4K]

salma3

0 | 7

44.87 ГБ

В этой теме нет новых непрочитанных сообщений. Чудо-женщина / Wonder Woman Фантастика, Фэнтези, Боевик[, 2017] BDRip 1080p, Dub [iTunes] [3D-Video]

salma3

229 | 234

12.54 ГБ

В этой теме нет новых непрочитанных сообщений. Чудо / Wonder (2017) BDRip 720p, Dub [iTunes]

salma3

73 | 25

4.75 ГБ

В этой теме нет новых непрочитанных сообщений. Чудо-Юдо [мультфильм, фэнтези, 2017] WEB-DL 1080p [iTunes]

salma3

0 | 0

2.86 ГБ


Начать новую тему Ответить на тему  [ 1 сообщение ] 




Для Мосгорсуда, Роскомнадзора и рекламодателей:: mosgorsud-torrent[собачка]yandex.ru
cron