Торрент файл
скачать торрент магнет ссылка Добавлен: 08 мар 2018, 12:30
Размер: 26.53 ГБ
Сидеров: 11
Личеров: 7
Статус: (salma3)
Автор

СообщениеДобавлено: 08 мар 2018, 12:30 

Не в сети
Супермодератор
Аватара пользователя
Дата регистрации:
15 фев 2012, 16:44
Возраст: 28
Спасибо: 7223 / 2147
Сообщения: 67788
Год выпуска: 2017
Жанр: Драма, семейный
Режиссер: Стивен Чбоски

В ролях: Джейкоб Тремблей, Оуэн Уилсон, Изабела Видович, Джулия Робертс, Марк Доцлав, Рукия Бернард, Дженнифер Марч, Мэнди Пэтинкин, Ноа Джуп, Брайс Гейзар

О фильме:
С одной стороны мальчик Август Пулман такой же как и другие мальчишки его возраста — любит ходить на дни рождения к друзьям, играть в компьютерные игры, фанатеет от «Звездных войн», играет со своей собакой, ссорится и мирится со старшей сестрой. А с другой — он совсем не такой как другие мальчишки его возраста. Во-первых, Август никогда не ходил в обычную школу — с первого класса с ним дома занималась мама. Во-вторых, Август перенес 27 операций. Из-за очень редкой, но иногда встречающейся генетической ошибки у Августа нет лица. И вот такой мальчик должен пойти в школу. В первый раз. К обычным детям.



Страна: США
Продолжительность: 01:53:10
Перевод: Дублированный | iTunes

Качество: BDRemux 1080p
Видео: MPEG-4 AVC, 1920x1080, 29.0 Mbit/s, 23.976 fps
Аудио01: 48 kHz, AC3, 5.1, 384 Kbps | Дублированный | iTunes | RUS
Аудио02: 48 kHz, TrueHD, 7.1, 3497 Kbps | Оригинал | ENG
Аудио03: 48 kHz, AC3, 5.1, 640 Kbps | Оригинал | ENG
Субтитры: Русские, английские[/center]

General
Unique ID : 211076084473503224256281739662084801920 (0x9ECBC67117A702D39FC27AFA0CB40580)
Complete name : C:Video111Wonder.2017.BDREMUX.1080p.ExKinoRay.mkv
Format : Matroska
Format version : Version 4 / Version 2
File size : 26.5 GiB
Duration : 1 h 53 min
Overall bit rate mode : Variable
Overall bit rate : 33.6 Mb/s
Movie name : Wonder 2017 from ExKinoRay
Encoded date : UTC 2018-03-07 20:08:47
Writing application : mkvmerge v21.0.0 ('Tardigrades Will Inherit The Earth') 64-bit
Writing library : libebml v1.3.5 + libmatroska v1.4.8

Video
ID : 1
Format : AVC
Format/Info : Advanced Video Codec
Format profile : High@L4.1
Format settings : CABAC / 4 Ref Frames
Format settings, CABAC : Yes
Format settings, ReFrames : 4 frames
Codec ID : V_MPEG4/ISO/AVC
Duration : 1 h 53 min
Bit rate mode : Variable
Bit rate : 29.0 Mb/s
Maximum bit rate : 37.0 Mb/s
Width : 1 920 pixels
Height : 1 080 pixels
Display aspect ratio : 16:9
Frame rate mode : Constant
Frame rate : 23.976 (24000/1001) FPS
Color space : YUV
Chroma subsampling : 4:2:0
Bit depth : 8 bits
Scan type : Progressive
Bits/(Pixel*Frame) : 0.583
Stream size : 22.9 GiB (86%)
Language : English
Default : Yes
Forced : No

Audio #1
ID : 2
Format : AC-3
Format/Info : Audio Coding 3
Codec ID : A_AC3
Duration : 1 h 53 min
Bit rate mode : Constant
Bit rate : 384 kb/s
Channel(s) : 6 channels
Channel positions : Front: L C R, Side: L R, LFE
Sampling rate : 48.0 kHz
Frame rate : 31.250 FPS (1536 SPF)
Bit depth : 16 bits
Compression mode : Lossy
Stream size : 311 MiB (1%)
Title : iTunes
Language : Russian
Service kind : Complete Main
Default : Yes
Forced : Yes

Audio #2
ID : 3
Format : TrueHD
Codec ID : A_TRUEHD
Duration : 1 h 53 min
Bit rate mode : Variable
Bit rate : 3 497 kb/s
Maximum bit rate : 4 647 kb/s
Channel(s) : 8 channels
Channel positions : Front: L C R, Side: L R, Back: L R, LFE
Sampling rate : 48.0 kHz
Frame rate : 1 200.000 FPS (40 SPF)
Compression mode : Lossless
Stream size : 2.76 GiB (10%)
Title : Original
Language : English
Default : No
Forced : No

Audio #3
ID : 4
Format : AC-3
Format/Info : Audio Coding 3
Codec ID : A_AC3
Duration : 1 h 53 min
Bit rate mode : Constant
Bit rate : 640 kb/s
Channel(s) : 6 channels
Channel positions : Front: L C R, Side: L R, LFE
Sampling rate : 48.0 kHz
Frame rate : 31.250 FPS (1536 SPF)
Bit depth : 16 bits
Compression mode : Lossy
Stream size : 518 MiB (2%)
Language : English
Service kind : Complete Main
Default : No
Forced : No

Text #1
ID : 5
Format : UTF-8
Codec ID : S_TEXT/UTF8
Codec ID/Info : UTF-8 Plain Text
Duration : 1 h 44 min
Bit rate : 111 b/s
Count of elements : 1504
Stream size : 85.2 KiB (0%)
Title : full
Language : Russian
Default : No
Forced : No

Text #2
ID : 6
Format : UTF-8
Codec ID : S_TEXT/UTF8
Codec ID/Info : UTF-8 Plain Text
Duration : 1 h 44 min
Bit rate : 62 b/s
Count of elements : 1468
Stream size : 48.2 KiB (0%)
Title : full
Language : English
Default : No
Forced : No

Text #3
ID : 7
Format : UTF-8
Codec ID : S_TEXT/UTF8
Codec ID/Info : UTF-8 Plain Text
Duration : 1 h 44 min
Bit rate : 68 b/s
Count of elements : 1633
Stream size : 52.3 KiB (0%)
Title : SDH
Language : English
Default : No
Forced : No

Menu
00:00:00.000 : en:00:00:00.000
00:06:04.489 : en:00:06:04.489
00:12:18.446 : en:00:12:18.446
00:19:23.496 : en:00:19:23.496
00:26:23.165 : en:00:26:23.165
00:33:06.234 : en:00:33:06.234
00:38:54.666 : en:00:38:54.666
00:47:19.378 : en:00:47:19.378
00:51:42.891 : en:00:51:42.891
00:59:36.865 : en:00:59:36.865
01:06:05.336 : en:01:06:05.336
01:14:59.411 : en:01:14:59.411
01:23:18.034 : en:01:23:18.034
01:30:36.097 : en:01:30:36.097
01:33:19.510 : en:01:33:19.510
01:40:43.996 : en:01:40:43.996


Релиз от: Автор релиза:


_________________
Проголосуй за трекер Открытый торрент трекер - RUS-MEDIA.ORG

Проголосуй Открытый торрент трекер - RUS-MEDIA.ORG


Вернуться к началу
 Профиль Отправить личное сообщение  
 
   Похожие торренты   Автор   Торрент   Размер 
В этой теме нет новых непрочитанных сообщений. Чудо / Wonder [Драма, семейный, 2017] BDRemux 2160p, Dub [iTunes] [4K]

salma3

0 | 7

44.87 ГБ

В этой теме нет новых непрочитанных сообщений. Чудо / Wonder [Драма, семейный, 2017] BDRip 1080p, Dub [iTunes]

salma3

111 | 26

8.71 ГБ

В этой теме нет новых непрочитанных сообщений. Чудо / Wonder [Драма, семейный, 2017] BDRip, Dub [iTunes]

salma3

0 | 1

746.91 МБ

В этой теме нет новых непрочитанных сообщений. Чудо / Wonder [Драма, семейный, 2017] BDRip, Dub [iTunes]

salma3

398 | 72

1.41 ГБ

В этой теме нет новых непрочитанных сообщений. Чудо на 34-й улице / Miracle on 34th Street [Фэнтези, приключения, семейный, драма, ремейк, 1994] BDRemux 1080p, Mvo

salma3

0 | 2

29.39 ГБ

В этой теме нет новых непрочитанных сообщений. Редкая бабочка / The Butterfly Tree [Драма, семейный, 2017] BDRemux 1080p, Mvo [iTunes]

salma3

10 | 14

20.37 ГБ

В этой теме нет новых непрочитанных сообщений. Чудо-женщина / Wonder Woman [Фэнтези, фантастика, боевик, 2017] BDRemux 1080р, Dub [3D-Video] [iTunes]

salma3

34 | 21

37.85 ГБ


Начать новую тему Ответить на тему  [ 1 сообщение ] 




Для Мосгорсуда, Роскомнадзора и рекламодателей:: mosgorsud-torrent[собачка]yandex.ru
cron