Торрент файл
скачать торрент магнет ссылка Добавлен: 06 мар 2018, 17:34
Размер: 9.27 ГБ
Сидеров: 32
Личеров: 4
Статус: (salma3)
Автор

СообщениеДобавлено: 06 мар 2018, 17:34 

Не в сети
Супермодератор
Аватара пользователя
Дата регистрации:
15 фев 2012, 16:44
Возраст: 28
Спасибо: 7290 / 2147
Сообщения: 70823
Год выпуска: 2017
Жанр: Боевик, комедия
Режиссер: Анджей Бартковяк

В ролях: Александр Невский, Дэнни Трэхо, Том Арнольд, Келли Ху, Марк Дакаскос, Уильям Болдуин, Альфонсо МакОли, Маттиас Хьюз, Кит Пауэрс, Евгений Стычкин, Бай Линь, Максим Виторган, Аристарх Венес, Эрик Робертс, Лилия Мэй

О фильме: Госсекретарь США тайно прибывает на секретный саммит в Москве, чтобы уладить напряженность российско-американских отношений. Однако мир оказывается перед угрозой Третьей мировой войны, когда лидер международной преступной группировки организовывает покушение на госсекретаря и похищает его внучку. ФСБ и ЦРУ объединяются, чтобы спасти человечество.



Выпущено: Россия, США, Hollywood Storm, Czar Pictures
Продолжительность: 01:49:45
Перевод: Дублированный[Лицензия]

Качество: BDRip 1080p
Видео: MPEG-4 AVC, 9942 Кбит/с, 1920x804, 24 кадр/с
Аудио: Русский (AC3, 6 ch, 640 Кбит/с), (DTS, 6 ch, 1509 Кбит/с)
Сохранены оригинальные чаптеры как на Blu-Ray.

x264 [info]: frame I:1853 Avg QP:16.13 size:173170
x264 [info]: frame P:42132 Avg QP:18.61 size: 80690
x264 [info]: frame B:114066 Avg QP:19.98 size: 39098
x264 [info]: consecutive B-frames: 5.1% 6.9% 10.4% 31.3% 18.3% 19.2% 6.5% 1.0% 1.0% 0.2% 0.3%
x264 [info]: mb I I16..4: 6.7% 75.0% 18.2%
x264 [info]: mb P I16..4: 3.5% 32.2% 4.4% P16..4: 25.0% 24.2% 5.8% 0.5% 0.0% skip: 4.4%
x264 [info]: mb B I16..4: 1.1% 6.7% 0.6% B16..8: 31.8% 18.6% 3.1% direct:10.0% skip:28.1% L0:42.0% L1:43.4% BI:14.6%
x264 [info]: 8x8 transform intra:79.9% inter:66.1%
x264 [info]: direct mvs spatial:98.7% temporal:1.3%
x264 [info]: coded y,uvDC,uvAC intra: 81.5% 87.9% 63.4% inter: 32.9% 43.6% 19.4%
x264 [info]: i16 v,h,dc,p: 14% 21% 8% 57%
x264 [info]: i8 v,h,dc,ddl,ddr,vr,hd,vl,hu: 13% 11% 12% 8% 10% 11% 11% 11% 12%
x264 [info]: i4 v,h,dc,ddl,ddr,vr,hd,vl,hu: 34% 17% 17% 4% 6% 6% 6% 5% 5%
x264 [info]: i8c dc,h,v,p: 43% 24% 19% 14%
x264 [info]: Weighted P-Frames: Y:1.3% UV:0.4%
x264 [info]: ref P L0: 53.7% 11.8% 20.1% 6.9% 6.9% 0.6% 0.0%
x264 [info]: ref B L0: 79.2% 15.0% 4.5% 1.3%
x264 [info]: ref B L1: 93.4% 6.6%
x264 [info]: kb/s:9937.36
Общее
Уникальный идентификатор : 209917181342682553894038031399110055952 (0x9DEC941B207D25B9BB6AF519B31C1810)
Полное имя : D:ЗагрузкиMaximum.Impact.2017.x264.BDRip.(1080p).OlLanDGroup.mkv
Формат : Matroska
Версия формата : Version 4 / Version 2
Размер файла : 9,27 Гбайт
Продолжительность : 1 ч. 49 м.
Общий поток : 12,1 Мбит/сек
Название фильма : Максимальный удар.2017.Rip by: ollan
Дата кодирования : UTC 2018-03-06 10:34:27
Программа кодирования : mkvmerge v6.5.0 ('Isn't she lovely') built on Oct 20 2013 12:50:05
Библиотека кодирования : libebml v1.3.0 + libmatroska v1.4.1
Attachements : Cover - Maximum.Impact.png

Видео
Идентификатор : 1
Формат : AVC
Формат/Информация : Advanced Video Codec
Профиль формата : High@L4.1
Параметр CABAC формата : Да
Параметр ReFrames формата : 5 кадров
Идентификатор кодека : V_MPEG4/ISO/AVC
Продолжительность : 1 ч. 49 м.
Битрейт : 9942 Кбит/сек
Ширина : 1920 пикселей
Высота : 804 пикселя
Соотношение сторон : 2,40:1
Режим частоты кадров : Постоянный
Частота кадров : 24,000 кадра/сек
Цветовое пространство : YUV
Субдискретизация насыщенности : 4:2:0
Битовая глубина : 8 бит
Тип развёртки : Прогрессивная
Бит/(Пиксели*Кадры) : 0.268
Размер потока : 7,44 Гбайт (80%)
Библиотека кодирования : x264 core 146 r2538 121396c
Настройки программы : cabac=1 / ref=5 / deblock=1:-2:-3 / analyse=0x3:0x133 / me=umh / subme=11 / psy=1 / psy_rd=0.95:0.07 / mixed_ref=1 / me_range=64 / chroma_me=1 / trellis=2 / 8x8dct=1 / cqm=0 / deadzone=21,11 / fast_pskip=0 / chroma_qp_offset=-3 / threads=12 / lookahead_threads=3 / sliced_threads=0 / nr=0 / decimate=0 / interlaced=0 / bluray_compat=0 / constrained_intra=0 / bframes=10 / b_pyramid=2 / b_adapt=2 / b_bias=0 / direct=3 / weightb=1 / open_gop=0 / weightp=2 / keyint=240 / keyint_min=24 / scenecut=40 / intra_refresh=0 / rc_lookahead=40 / rc=2pass / mbtree=0 / bitrate=9942 / ratetol=1.0 / qcomp=0.60 / qpmin=0 / qpmax=69 / qpstep=4 / cplxblur=20.0 / qblur=0.5 / vbv_maxrate=50000 / vbv_bufsize=62500 / nal_hrd=none / filler=0 / ip_ratio=1.40 / pb_ratio=1.30 / aq=1:1.00
Язык : English
Default : Да
Forced : Нет

Аудио #1
Идентификатор : 2
Формат : AC-3
Формат/Информация : Audio Coding 3
Расширение режима : CM (complete main)
Параметр Endianness формата : Big
Идентификатор кодека : A_AC3
Продолжительность : 1 ч. 49 м.
Вид битрейта : Постоянный
Битрейт : 640 Кбит/сек
Каналы : 6 каналов
Расположение каналов : Front: L C R, Side: L R, LFE
Частота : 48,0 КГц
Частота кадров : 31,250 кадров/сек (1536 spf)
Метод сжатия : С потерями
Размер потока : 502 Мбайт (5%)
Заголовок : Дублированный (Лицензия)
Язык : Russian
Default : Да
Forced : Нет

Аудио #2
Идентификатор : 3
Формат : DTS
Формат/Информация : Digital Theater Systems
Режим : 16
Параметр Endianness формата : Big
Идентификатор кодека : A_DTS
Продолжительность : 1 ч. 49 м.
Вид битрейта : Постоянный
Битрейт : 1509 Кбит/сек
Каналы : 6 каналов
Расположение каналов : Front: L C R, Side: L R, LFE
Частота : 48,0 КГц
Частота кадров : 93,750 кадра/сек (512 spf)
Битовая глубина : 24 бит
Метод сжатия : С потерями
Размер потока : 1,16 Гбайт (12%)
Заголовок : Дублированный (Лицензия)
Язык : Russian
Default : Нет
Forced : Нет

Меню
00:00:00.000 : en:Chapter 01
00:00:29.000 : en:Chapter 02
00:10:11.333 : en:Chapter 03
00:24:28.250 : en:Chapter 04
00:36:30.666 : en:Chapter 05
00:51:38.708 : en:Chapter 06
01:06:48.500 : en:Chapter 07
01:17:28.625 : en:Chapter 08
01:31:26.750 : en:Chapter 09






Релиз от: Rip by:


_________________
Проголосуй за трекер Открытый торрент трекер - RUS-MEDIA.ORG

Проголосуй Открытый торрент трекер - RUS-MEDIA.ORG


Вернуться к началу
 Профиль Отправить личное сообщение  
 
   Похожие торренты   Автор   Торрент   Размер 
В этой теме нет новых непрочитанных сообщений. Максимальный удар / Maximum Impact [боевик, комедия, 2017] Blu-Ray 1080p [Лицензия]

salma3

12 | 24

19.99 ГБ

В этой теме нет новых непрочитанных сообщений. Максимальный удар / Maximum Impact [боевик, комедия, 2017] HDRip, Dub [Лицензия]

salma3

1022 | 158

1.37 ГБ

В этой теме нет новых непрочитанных сообщений. Максимальный удар / Maximum Impact [боевик, комедия, 2017] WEB-DL 1080p, Dub [iTunes]

salma3

528 | 232

3.62 ГБ

В этой теме нет новых непрочитанных сообщений. Максимальный удар / Maximum Impact [боевик, комедия, 2017] WEBDLRip, Dub

salma3

927 | 109

1.37 ГБ

В этой теме нет новых непрочитанных сообщений. Максимальный удар / Maximum Impact [Боевик, комедия, 2017] WEB-DLRip, Dub [iTunes]

salma3

3102 | 579

1.46 ГБ

В этой теме нет новых непрочитанных сообщений. Максимальный удар / Maximum Impact [Боевик, комедия, 2017] WEB-DLRip, Dub [iTunes] [КПК]

salma3

35 | 8

399.89 МБ

В этой теме нет новых непрочитанных сообщений. Максимальный удар / Maximum Impact [боевик, комедия, 2017] WEB-DL 720p, Dub [iTunes]

salma3

205 | 90

3.24 ГБ


Начать новую тему Ответить на тему  [ 1 сообщение ] 




Для Мосгорсуда, Роскомнадзора и рекламодателей:: mosgorsud-torrent[собачка]yandex.ru
cron