Торрент файл
скачать торрент магнет ссылка Добавлен: 06 мар 2018, 00:20
Размер: 4.52 ГБ
Сидеров: 272
Личеров: 7
Статус: (salma3)
Автор

СообщениеДобавлено: 06 мар 2018, 00:20 

Не в сети
Супермодератор
Аватара пользователя
Дата регистрации:
15 фев 2012, 16:44
Возраст: 29
Спасибо: 7320 / 2147
Сообщения: 73192
Год выхода: 2017
Жанр: Фэнтези, боевик, комедия
Режиссер: Джейк Кэздан

В ролях: Дуэйн Джонсон, Кевин Харт, Джек Блэк, Карен Гиллан, Риз Дэрби, Бобби Каннавейл, Ник Джонас, Алекс Вулф, Сер’Дариус Блэйн, Мэдисон Исман

О фильме:
Четверо подростков оказываются внутри игры «Джуманджи». Их ждет схватка с носорогами, черными мамбами, а на каждом шагу будет подстерегать бесконечная череда ловушек и головоломок. Чтобы пройти игру и остаться в живых, им придется перевоплотиться в персонажей игры: робкий и застенчивый Спенсер превращается в отважного и сильного исследователя, здоровяк Фридж — в коротышку, модница и красавица Беттани — в профессора, а неуклюжая и нескладная Марта становится бесстрашной и ловкой амазонкой. Друзьям придется привыкнуть к совершенно новым и таким непривычным для себя ролям и найти дорогу домой.



Страна: США
Продолжительность: 01:59:01
Перевод: Дублированный [iTunes]

Качество: WEB-DL 1080p
Видео: MPEG-4 AVC, 1920x796, 4543 Kbit/s, 23.976 fps
Аудио01: 48 kHz, AC3, 5.1, 384 Kbps | Дублированный | iTunes | RUS
Аудио02: 48 kHz, AAC, 2.0, 127 Kbps | Дублированный | iTunes | RUS
Аудио03: 48 kHz, AC3, 5.1, 384 Kbps | Оригинал | ENG
Субтитры: Русские, украинские, английские

General
Unique ID : 79631259923641429639013061540131891869 (0x3BE86C3C989714E11DD650990983EA9D)
Complete name : C:Video111Jumanji.Welcome.to.the.Jungle.2017.WEB-DL.1080p.ExKinoRay.mkv
Format : Matroska
Format version : Version 4 / Version 2
File size : 4.52 GiB
Duration : 1 h 59 min
Overall bit rate : 5 441 kb/s
Movie name : Jumanji: Welcome to the Jungle 2017 from ExKinoRay
Encoded date : UTC 2018-03-05 19:35:36
Writing application : mkvmerge v21.0.0 ('Tardigrades Will Inherit The Earth') 64-bit
Writing library : libebml v1.3.5 + libmatroska v1.4.8

Video
ID : 1
Format : AVC
Format/Info : Advanced Video Codec
Format profile : High@L4
Format settings : CABAC / 5 Ref Frames
Format settings, CABAC : Yes
Format settings, ReFrames : 5 frames
Codec ID : V_MPEG4/ISO/AVC
Duration : 1 h 59 min
Bit rate : 4 543 kb/s
Width : 1 920 pixels
Height : 796 pixels
Display aspect ratio : 2.40:1
Frame rate mode : Constant
Frame rate : 23.976 FPS
Color space : YUV
Chroma subsampling : 4:2:0
Bit depth : 8 bits
Scan type : Progressive
Bits/(Pixel*Frame) : 0.124
Stream size : 3.78 GiB (83%)
Language : English
Default : Yes
Forced : No
Color range : Limited
Color primaries : BT.709
Transfer characteristics : BT.709
Matrix coefficients : BT.709

Audio #1
ID : 2
Format : AC-3
Format/Info : Audio Coding 3
Codec ID : A_AC3
Duration : 1 h 59 min
Bit rate mode : Constant
Bit rate : 384 kb/s
Channel(s) : 6 channels
Channel positions : Front: L C R, Side: L R, LFE
Sampling rate : 48.0 kHz
Frame rate : 31.250 FPS (1536 SPF)
Bit depth : 16 bits
Compression mode : Lossy
Stream size : 327 MiB (7%)
Title : iTunes
Language : Russian
Service kind : Complete Main
Default : Yes
Forced : No

Audio #2
ID : 3
Format : AAC
Format/Info : Advanced Audio Codec
Format profile : LC
Codec ID : A_AAC-2
Duration : 1 h 59 min
Bit rate : 127 kb/s
Channel(s) : 2 channels
Channel positions : Front: L R
Sampling rate : 48.0 kHz
Frame rate : 46.875 FPS (1024 SPF)
Compression mode : Lossy
Stream size : 108 MiB (2%)
Title : iTunes
Language : Ukrainian
Default : No
Forced : No

Audio #3
ID : 4
Format : AC-3
Format/Info : Audio Coding 3
Codec ID : A_AC3
Duration : 1 h 59 min
Bit rate mode : Constant
Bit rate : 384 kb/s
Channel(s) : 6 channels
Channel positions : Front: L C R, Side: L R, LFE
Sampling rate : 48.0 kHz
Frame rate : 31.250 FPS (1536 SPF)
Bit depth : 16 bits
Compression mode : Lossy
Stream size : 327 MiB (7%)
Title : Original
Language : English
Service kind : Complete Main
Default : No
Forced : No

Text #1
ID : 5
Format : UTF-8
Codec ID : S_TEXT/UTF8
Codec ID/Info : UTF-8 Plain Text
Duration : 1 h 55 min
Bit rate : 0 b/s
Count of elements : 2
Stream size : 110 Bytes (0%)
Title : forced
Language : Russian
Default : Yes
Forced : No

Text #2
ID : 6
Format : UTF-8
Codec ID : S_TEXT/UTF8
Codec ID/Info : UTF-8 Plain Text
Duration : 1 h 57 min
Bit rate : 95 b/s
Count of elements : 1577
Stream size : 82.2 KiB (0%)
Title : full
Language : Russian
Default : No
Forced : No

Text #3
ID : 7
Format : UTF-8
Codec ID : S_TEXT/UTF8
Codec ID/Info : UTF-8 Plain Text
Duration : 1 h 48 min
Bit rate : 63 b/s
Count of elements : 1539
Stream size : 50.9 KiB (0%)
Title : full
Language : English
Default : No
Forced : No

Text #4
ID : 8
Format : UTF-8
Codec ID : S_TEXT/UTF8
Codec ID/Info : UTF-8 Plain Text
Duration : 1 h 57 min
Bit rate : 76 b/s
Count of elements : 1562
Stream size : 66.4 KiB (0%)
Title : full
Language : Ukrainian
Default : No
Forced : No

Menu
00:00:00.000 : en:1
00:07:17.103 : en:2
00:17:14.991 : en:3
00:23:22.232 : en:4
00:29:23.967 : en:5
00:42:27.542 : en:6
00:47:10.156 : en:7
00:54:25.715 : en:8
01:03:19.831 : en:9
01:10:20.792 : en:10
01:15:50.663 : en:11
01:24:09.077 : en:12
01:28:19.284 : en:13
01:33:47.402 : en:14
01:42:21.873 : en:15
01:48:30.825 : en:16


Релиз от: Автор релиза:
[b] Подпи


_________________
Проголосуй за трекер Открытый торрент трекер - RUS-MEDIA.ORG

Проголосуй Открытый торрент трекер - RUS-MEDIA.ORG


Вернуться к началу
 Профиль Отправить личное сообщение  
 
   Похожие торренты   Автор   Торрент   Размер 
В этой теме нет новых непрочитанных сообщений. Джуманджи: Зов джунглей / Jumanji: Welcome to the Jungle [Фэнтези, боевик, комедия, 2017] WEB-DLRip, Dub [iTunes]

salma3

23 | 7

2.19 ГБ

В этой теме нет новых непрочитанных сообщений. Джуманджи: Зов джунглей / Jumanji: Welcome to the Jungle [Фэнтези, боевик, комедия, 2017] WEB-DLRip-AVC, Dub [iTunes]

salma3

1100 | 483

746.68 МБ

В этой теме нет новых непрочитанных сообщений. Джуманджи: Зов джунглей / Jumanji: Welcome to the Jungle [Фэнтези, боевик, комедия, 2017] WEB-DLRip, Dub [iTunes]

salma3

1419 | 196

1.46 ГБ

В этой теме нет новых непрочитанных сообщений. Джуманджи: Зов джунглей / Jumanji: Welcome to the Jungle [Фэнтези, боевик, комедия, 2017] WEB-DLRip-AVC, Dub [iTunes]

salma3

198 | 59

2.43 ГБ

В этой теме нет новых непрочитанных сообщений. Джуманджи: Зов джунглей / Jumanji: Welcome to the Jungle [Фэнтези, боевик, комедия, 2017] BDRip 1080p, Dub [Лицензия]

salma3

52 | 1

11.6 ГБ

В этой теме нет новых непрочитанных сообщений. Джуманджи: Зов джунглей / Jumanji: Welcome to the Jungle [Фэнтези, боевик, комедия, 2017] BDRemux 1080p, Dub [Лицензия]

salma3

15 | 2

23.07 ГБ

В этой теме нет новых непрочитанных сообщений. Джуманджи: Зов джунглей / Jumanji: Welcome to the Jungle [Фэнтези, боевик, комедия, 2017] BDRip, Dub [Лицензия]

salma3

32 | 4

2.18 ГБ


Начать новую тему Ответить на тему  [ 1 сообщение ] 




Для Мосгорсуда, Роскомнадзора и рекламодателей:: mosgorsud-torrent[собачка]yandex.ru
cron