Торрент файл
скачать торрент магнет ссылка Добавлен: 03 мар 2018, 22:17
Размер: 9.48 ГБ
Сидеров: 0
Личеров: 0
Статус: (salma3)
Автор

СообщениеДобавлено: 03 мар 2018, 22:17 

Не в сети
Супермодератор
Аватара пользователя
Дата регистрации:
15 фев 2012, 16:44
Возраст: 28
Спасибо: 7223 / 2147
Сообщения: 67697
Год выхода: 2009
Жанр: фэнтези, комедия, приключения
Режиссер: Брэд Силберлинг

В ролях: Уилл Феррелл, Анна Фрил, Дэнни МакБрайд, Йорма Такконе, Майкл Пападжон, Муса Крэйиш, Поллианна МакИнтош, Ив Мауро, Лэндон Эшуорт, Дуглас Тэйт, Тодд Кристиан Хантер, Моран Атиас

О фильме:
«Затерянный мир» (Land of the Lost) - альтернативная вселенная, куда могучим вихрем был втянут палеонтолог Рик Маршал, а также научный ассистент Холли и красавчик-гид Вилл. Там они столкнулись с настоящими динозаврами, фантастическими животными и человекоподобными существами. Опасный «Затерянный мир» - место не для слабых. У новоиспеченных первооткрывателей-путешественников нет оружия, только смекалка и несколько навыков выживания. К счастью, им удалось подружиться с «местным жителем» - приматом по имени Чака.



Страна: CША
Продолжительность: 01:41:40
Перевод: Дублированный, авторский

Файл
Кодек: х.264
Качество: BDRip 1080p
Видео: 1920x1040, 23.976 fps, 9571 kbps
Звук:
Russian: DTS / 5.1 / 768 kbps - Профессиональный (дублированный)
Russian: DTS / 5.1 / 1509 kbps - Яроцкий [Kyberpunk]
English: DTS / 5.1 / 1509 kbps
Субтитры: Русские, английские, украинские

Unique ID : 276160877930648368826100273418641839869 (0xCFC2A6826A7F9E9736378FFE513796FD)
Complete name : C:UsersstimcoDesktopVIDEOLand of the Lost.2009.x264.FHDRip.1080p.stimco.mkv
Format : Matroska
Format version : Version 4 / Version 2
File size : 9.48 GiB
Duration : 1 h 41 min
Overall bit rate : 13.3 Mb/s
Movie name : = Land of the Lost=
Encoded date : UTC 2018-03-03 13:58:49
Writing application : mkvmerge v21.0.0 ('Tardigrades Will Inherit The Earth') 64-bit
Writing library : libebml v1.3.5 + libmatroska v1.4.8

Video
ID : 1
Format : AVC
Format/Info : Advanced Video Codec
Format profile : High@L4.1
Format settings : CABAC / 4 Ref Frames
Format settings, CABAC : Yes
Format settings, ReFrames : 4 frames
Codec ID : V_MPEG4/ISO/AVC
Duration : 1 h 41 min
Bit rate : 9 571 kb/s
Width : 1 920 pixels
Height : 1 040 pixels
Display aspect ratio : 1.85:1
Frame rate mode : Constant
Frame rate : 23.976 (24000/1001) FPS
Color space : YUV
Chroma subsampling : 4:2:0
Bit depth : 8 bits
Scan type : Progressive
Bits/(Pixel*Frame) : 0.200
Stream size : 6.79 GiB (72%)
Title : AVC [9571 kbps]
Writing library : x264 core 155 r2901 7d0ff22
Encoding settings : cabac=1 / ref=4 / deblock=1:-3:-3 / analyse=0x3:0x113 / me=umh / subme=10 / psy=1 / psy_rd=1.00:0.10 / mixed_ref=1 / me_range=47 / chroma_me=1 / trellis=2 / 8x8dct=1 / cqm=0 / deadzone=21,11 / fast_pskip=0 / chroma_qp_offset=-2 / threads=6 / lookahead_threads=1 / sliced_threads=0 / nr=0 / decimate=0 / interlaced=0 / bluray_compat=0 / constrained_intra=0 / bframes=8 / b_pyramid=2 / b_adapt=2 / b_bias=0 / direct=3 / weightb=1 / open_gop=0 / weightp=2 / keyint=240 / keyint_min=23 / scenecut=40 / intra_refresh=0 / rc_lookahead=85 / rc=2pass / mbtree=1 / bitrate=9571 / ratetol=1.0 / qcomp=0.70 / qpmin=0 / qpmax=57 / qpstep=4 / cplxblur=20.0 / qblur=0.5 / vbv_maxrate=62500 / vbv_bufsize=78125 / nal_hrd=none / filler=0 / ip_ratio=1.30 / aq=2:0.70
Language : English
Default : Yes
Forced : No

Audio #1
ID : 2
Format : DTS
Format/Info : Digital Theater Systems
Codec ID : A_DTS
Duration : 1 h 41 min
Bit rate mode : Constant
Bit rate : 755 kb/s
Channel(s) : 6 channels
Channel positions : Front: L C R, Side: L R, LFE
Sampling rate : 48.0 kHz
Frame rate : 93.750 FPS (512 SPF)
Bit depth : 24 bits
Compression mode : Lossy
Stream size : 548 MiB (6%)
Title : Dub
Language : Russian
Default : Yes
Forced : No

Audio #2
ID : 3
Format : DTS
Format/Info : Digital Theater Systems
Codec ID : A_DTS
Duration : 1 h 41 min
Bit rate mode : Constant
Bit rate : 1 509 kb/s
Channel(s) : 6 channels
Channel positions : Front: L C R, Side: L R, LFE
Sampling rate : 48.0 kHz
Frame rate : 93.750 FPS (512 SPF)
Bit depth : 24 bits
Compression mode : Lossy
Stream size : 1.07 GiB (11%)
Title : AVO Yarotskiy [Kyberpunk]
Language : Russian
Default : No
Forced : No

Audio #3
ID : 4
Format : DTS
Format/Info : Digital Theater Systems
Codec ID : A_DTS
Duration : 1 h 41 min
Bit rate mode : Constant
Bit rate : 1 510 kb/s
Channel(s) : 6 channels
Channel positions : Front: L C R, Side: L R, LFE
Sampling rate : 48.0 kHz
Frame rate : 93.750 FPS (512 SPF)
Bit depth : 24 bits
Compression mode : Lossy
Stream size : 1.07 GiB (11%)
Language : English
Default : No
Forced : No

Text #1
ID : 5
Format : UTF-8
Codec ID : S_TEXT/UTF8
Codec ID/Info : UTF-8 Plain Text
Duration : 1 h 36 min
Bit rate : 85 b/s
Count of elements : 1008
Stream size : 60.4 KiB (0%)
Language : Russian
Default : Yes
Forced : No

Text #2
ID : 6
Format : UTF-8
Codec ID : S_TEXT/UTF8
Codec ID/Info : UTF-8 Plain Text
Duration : 1 h 36 min
Bit rate : 94 b/s
Count of elements : 1023
Stream size : 66.5 KiB (0%)
Language : Ukrainian
Default : No
Forced : No

Text #3
ID : 7
Format : UTF-8
Codec ID : S_TEXT/UTF8
Codec ID/Info : UTF-8 Plain Text
Duration : 1 h 36 min
Bit rate : 74 b/s
Count of elements : 1642
Stream size : 52.2 KiB (0%)
Language : English
Default : No
Forced : No


_________________
Проголосуй за трекер Открытый торрент трекер - RUS-MEDIA.ORG

Проголосуй Открытый торрент трекер - RUS-MEDIA.ORG


Вернуться к началу
 Профиль Отправить личное сообщение  
 
   Похожие торренты   Автор   Торрент   Размер 
В этой теме нет новых непрочитанных сообщений. Затерянный мир / Land of the Lost [фэнтези, комедия, приключения, 2009] BDRemux 1080p, Dub

salma3

0 | 0

26.51 ГБ

В этой теме нет новых непрочитанных сообщений. Парк Юрского периода 2: Затерянный мир / The Lost World: Jurassic Park [фантастика, боевик, приключения, 1997] BDRip 1080p, Dub

salma3

37 | 40

10.15 ГБ

В этой теме нет новых непрочитанных сообщений. Затерянный мир / The Lost World [Приключения, фантастика, 1960] BDRip, Avo

salma3

22 | 19

1.48 ГБ

В этой теме нет новых непрочитанных сообщений. Затерянный мир / The Lost World [Приключения, фантастика, 1960] BDRip 720p, Avo

salma3

0 | 0

4.51 ГБ

В этой теме нет новых непрочитанных сообщений. Затерянный город Z / The Lost City of Z [Боевик, драма, приключения, 2016] Blu-Ray 1080p, Dub [Лицензия]

salma3

0 | 0

21.71 ГБ

В этой теме нет новых непрочитанных сообщений. Затерянный город Z / The Lost City of Z [Боевик, драма, приключения, 2016] BDRemux 1080p, Dub [Лицензия]

salma3

19 | 11

41.45 ГБ

В этой теме нет новых непрочитанных сообщений. Атлантида: Затерянный мир / Atlantis: The Lost Empire [мультфильм, фантастика, приключения, 2001] BDRip 720p, Dub

salma3

33 | 10

7.31 ГБ


Начать новую тему Ответить на тему  [ 1 сообщение ] 




Для Мосгорсуда, Роскомнадзора и рекламодателей:: mosgorsud-torrent[собачка]yandex.ru
cron